img image001 image001 image001 image001 image001 image001 image001 image001 image001 image001 image001 image001 image001 image001 image001

Planets Sun Sun Sun
Статистика раздачи
Автор: Снежана | Размер: 744.55 МБ | Добавлен: 24 июл 2013
Раздают: 154    Качают: 23
Скачать торрент
Скачать торрент
Описание торрента

СообщениеДобавлено: 24 июл 2013 

[imgright]http://s4.hostingkartinok.com/uploads/images/2013/01/8827b68ebabb7968a47700a7cfe0d721.png" style="float:left;[/imgright][imgright]http://s4.hostingkartinok.com/uploads/images/2013/01/bb3bd23fca9c075e466f68b240b48cee.png[/imgright]Год выпуска: 1961
Страна: СССР
Студия: Мосфильм
Жанр: драма, комедия
Продолжительность: 01:10:51

Перевод: не требуется
Субтитры: нет
Оригинальная аудиодорожка: русский

Режиссер: Виллен Азаров

В ролях: Алексей Грибов, Зоя Федорова, Лилия Алешникова, Александр Демьяненко, Всеволод Санаев, Андрей Тутышкин, Геннадий Бортников, Николай Граббе, Лева Родионов, Марина Хатунцева, Константин Худяков...

Описание: Анатолий Кузьмич вышел на пенсию и получил отдельную квартиру в новом доме. Они с женой счастливы и строят радужные планы на будущее: как станут ходить в театры, музеи, читать любимые книги.
Но их дочь Люся неожиданно выходит замуж. Не желая с ней расставаться, Королёвы уговаривают молодых супругов жить вместе с ними в новой квартире. Вскоре рождается ребенок, и постепенно совместная жизнь становится невыносимой…






Исходник: DVD9 R5
Тип релиза: DVDRip
Контейнер: AVI

Видео: 688x528 (4:3), 25 fps, XviD ~ 1332 kbps avg, 0.147 bit/pixel
Аудио: 48 kHz, MP3, 2 ch, 128.00 kbps

Раздача от:
Общее
Полное имя : Vzroslye.deti.1961.DVDRip_[Youtracker]_by_AVP Studio.avi
Формат : AVI
Формат/Информация : Audio Video Interleave
Размер файла : 745 Мбайт
Продолжительность : 1 ч. 10 м.
Общий поток : 1469 Кбит/сек
Программа кодирования : VirtualDubMod 1.5.10.3 | www.virtualdub-fr.org || (build 2550/release)
Библиотека кодирования : VirtualDubMod build 2550/release

Видео
Идентификатор : 0
Формат : MPEG-4 Visual
Профиль формата : Advanced Simple@L5
Параметр BVOP формата : 1
Параметр QPel формата : Нет
Параметр GMC формата : Без точки перехода
Параметр матрицы формата : Выборочная
Идентификатор кодека : XVID
Идентификатор кодека/Подсказка : XviD
Продолжительность : 1 ч. 10 м.
Битрейт : 1332 Кбит/сек
Ширина : 688 пикселей
Высота : 528 пикселей
Соотношение сторон : 4:3
Частота кадров : 25,000 кадров/сек
Цветовое пространство : YUV
Субдискретизация насыщенности : 4:2:0
Битовая глубина : 8 бит
Тип развёртки : Прогрессивная
Метод сжатия : С потерями
Бит/(Пиксели*Кадры) : 0.147
Размер потока : 675 Мбайт (91%)
Библиотека кодирования : XviD 65

Аудио
Идентификатор : 1
Формат : MPEG Audio
Версия формата : Version 1
Профиль формата : Layer 3
Идентификатор кодека : 55
Идентификатор кодека/Подсказка : MP3
Продолжительность : 1 ч. 10 м.
Вид битрейта : Постоянный
Битрейт : 128 Кбит/сек
Каналы : 2 канала
Частота : 48,0 КГц
Метод сжатия : С потерями
Размер потока : 64,9 Мбайт (9%)
Выравнивание : Соединение по промежуткам
Продолжительность промежутка : 40 мс. (1,00 видеокадр)
Время предзагрузки промежутка : 504 мс.
Библиотека кодирования : L3.99r
Настройки программы : -m s -V 4 -q 2 -lowpass 17 -b 128





   Похожие торренты   Торрент   Размер 
В этой теме нет новых непрочитанных сообщений. Взрослые дети (1961) DVDRip-AVC от Youtracker

19 | 18

894.82 МБ

В этой теме нет новых непрочитанных сообщений. Взрослые дети (1961) DVDRip

94 | 20

1.09 ГБ

В этой теме нет новых непрочитанных сообщений. Когда деревья были большими / Взрослые дети (1961) DVD5

27 | 13

4.36 ГБ

В этой теме нет новых непрочитанных сообщений. Взрослые дети развода / A.C.O.D. (2013) BDRip | iPad

22 | 13

1.54 ГБ

В этой теме нет новых непрочитанных сообщений. Взрослые дети развода / A.C.O.D. (2013) HDRip | iTunes

280 | 280

1.37 ГБ

В этой теме нет новых непрочитанных сообщений. Взрослые дети развода / A.C.O.D. (2013) BDRip-AVC | iTunes Russia

274 | 134

1.5 ГБ

В этой теме нет новых непрочитанных сообщений. Взрослые дети развода / A.C.O.D. (2013) BDRip 720p | D | iTunes Russia

203 | 98

4.6 ГБ




Вы не можете начинать темы
Вы не можете отвечать на сообщения
Вы не можете редактировать свои сообщения
Вы не можете удалять свои сообщения
Вы не можете добавлять вложения

Перейти:  
Для Мосгорсуда, Роскомнадзора и рекламодателей: mosgorsud-torrent[собачка]yandex.ru
 Вход
ppkBB3cker v.2 © 2008-2014 @ PPK
[ Time : 0.025s | 16 Queries | GZIP : Off ]

Торрент трекер RUTOR.IN, Не можете зайти на rutor.org? Какой новый адрес рутор? Какое зеркало рутор? Не работает rutor.org и зеркала? Тогда наш торрент специально для вас. Rutor.in неофициальное зеркало rutor. В случае если у Вас заблокирован rutor или вдруг Вы не можете на него зайти, то Вы без труда сможете скачать бесплатно и без рекламы последние новинки кино, игр, сериалов и прочего у нас, на Rutor.in. Не нужно использовать прокси, чтобы зайти на рутор, достаточно воспользоваться нашим ресурсом. Все новые фильмы, игры, сериалы, книги и музыка за 2013 и 2014 годы через торрент бесплатно. Скачивайте фильмы в хорошем качестве, игры для пк, xbox, playstation без регистрации. У нас вы найдете новые Зарубежные сериалы и Русские сериалы 2013, 2014, 2015 годов. Оставайтесь с нами, качайте любимые фильмы, игры, сериалы, книги и музыку.