img image001 image001 image001 image001 image001 image001 image001 image001 image001 image001 image001 image001 image001 image001 image001

Planets Sun Sun Sun
Статистика раздачи
Автор: Снежана | Размер: 894.82 МБ | Добавлен: 24 июл 2013
Раздают: 19    Качают: 18
Скачать торрент
Скачать торрент
Описание торрента

СообщениеДобавлено: 24 июл 2013 

#77
Год выпуска: 1961
Страна: СССР
Студия: Мосфильм
Жанр: драма, комедия
Продолжительность: 01:10:51

Перевод: не требуется
Субтитры: нет
Оригинальная аудиодорожка: русский

Режиссер: Виллен Азаров

В ролях: Алексей Грибов, Зоя Федорова, Лилия Алешникова, Александр Демьяненко, Всеволод Санаев, Андрей Тутышкин, Геннадий Бортников, Николай Граббе, Лева Родионов, Марина Хатунцева, Константин Худяков...

Описание: Анатолий Кузьмич вышел на пенсию и получил отдельную квартиру в новом доме. Они с женой счастливы и строят радужные планы на будущее: как станут ходить в театры, музеи, читать любимые книги.
Но их дочь Люся неожиданно выходит замуж. Не желая с ней расставаться, Королёвы уговаривают молодых супругов жить вместе с ними в новой квартире. Вскоре рождается ребенок, и постепенно совместная жизнь становится невыносимой…





Исходник: DVD5 R5
Тип релиза: DVDRip-AVC
Контейнер: MKV
Размер: 1/5 DVD5

Видео: 688x572@768x572 (1,290:1), 25 fps, H264 ~ 1572 kbps avg, 0.160 bit/pixel
Аудио: 48 kHz, AC3, 2 ch, 192.00 kbps

Раздача от:
Общее
Полное имя : Vzroslye.deti.1961.DVDRip-AVC_[Youtracker]_by_AVP Studio.mkv
Формат : Matroska
Версия формата : Version 2
Размер файла : 895 Мбайт
Продолжительность : 1 ч. 10 м.
Общий поток : 1766 Кбит/сек
Дата кодирования : UTC 2013-01-09 23:24:28
Программа кодирования : mkvmerge v5.0.1 ('Es ist Sommer') built on Nov 6 2011 16:23:40
Библиотека кодирования : libebml v1.2.2 + libmatroska v1.3.0

Видео
Идентификатор : 1
Формат : AVC
Формат/Информация : Advanced Video Codec
Профиль формата : High@L4.1
Параметр CABAC формата : Да
Параметр ReFrames формата : 11 кадров
Идентификатор кодека : V_MPEG4/ISO/AVC
Продолжительность : 1 ч. 10 м.
Битрейт : 1572 Кбит/сек
Ширина : 688 пикселей
Высота : 572 пикселя
Соотношение сторон : 1,290
Частота кадров : 25,000 кадров/сек
Цветовое пространство : YUV
Субдискретизация насыщенности : 4:2:0
Битовая глубина : 8 бит
Тип развёртки : Прогрессивная
Бит/(Пиксели*Кадры) : 0.160
Размер потока : 780 Мбайт (87%)
Библиотека кодирования : x264 core 119 r2106 07efeb4
Настройки программы : cabac=1 / ref=11 / deblock=1:-2:-1 / analyse=0x3:0x113 / me=umh / subme=9 / psy=1 / psy_rd=1.00:0.20 / mixed_ref=1 / me_range=32 / chroma_me=1 / trellis=1 / 8x8dct=1 / cqm=0 / deadzone=21,11 / fast_pskip=0 / chroma_qp_offset=-3 / threads=3 / sliced_threads=0 / nr=0 / decimate=0 / interlaced=0 / bluray_compat=0 / constrained_intra=0 / bframes=8 / b_pyramid=2 / b_adapt=2 / b_bias=0 / direct=3 / weightb=1 / open_gop=0 / weightp=2 / keyint=250 / keyint_min=25 / scenecut=40 / intra_refresh=0 / rc_lookahead=60 / rc=2pass / mbtree=1 / bitrate=1572 / ratetol=1.0 / qcomp=0.60 / qpmin=0 / qpmax=69 / qpstep=4 / cplxblur=20.0 / qblur=0.5 / ip_ratio=1.40 / aq=1:1.00
Default : Да
Forced : Нет

Аудио
Идентификатор : 2
Формат : AC-3
Формат/Информация : Audio Coding 3
Расширение режима : CM (complete main)
Идентификатор кодека : A_AC3
Продолжительность : 1 ч. 10 м.
Вид битрейта : Постоянный
Битрейт : 192 Кбит/сек
Каналы : 2 канала
Расположение каналов : Front: L R
Частота : 48,0 КГц
Битовая глубина : 16 бит
Метод сжатия : С потерями
Размер потока : 97,3 Мбайт (11%)
Default : Да
Forced : Нет





   Похожие торренты   Торрент   Размер 
В этой теме нет новых непрочитанных сообщений. Взрослые дети (1961) DVDRip от Youtracker

154 | 23

744.55 МБ

В этой теме нет новых непрочитанных сообщений. Взрослые дети (1961) DVDRip

94 | 20

1.09 ГБ

В этой теме нет новых непрочитанных сообщений. Когда деревья были большими / Взрослые дети (1961) DVD5

27 | 13

4.36 ГБ

В этой теме нет новых непрочитанных сообщений. Взрослые дети развода / A.C.O.D. (2013) HDRip | iTunes

280 | 280

1.37 ГБ

В этой теме нет новых непрочитанных сообщений. Взрослые дети развода / A.C.O.D. (2013) BDRip | iPad

22 | 13

1.54 ГБ

В этой теме нет новых непрочитанных сообщений. Взрослые дети развода / A.C.O.D. (2013) BDRip-AVC | iTunes Russia

274 | 134

1.5 ГБ

В этой теме нет новых непрочитанных сообщений. Взрослые Дети Развода / A.C.O.D. (2013) HDRip от Scarabey | D | iTunes Russia

238 | 52

1.45 ГБ




Вы не можете начинать темы
Вы не можете отвечать на сообщения
Вы не можете редактировать свои сообщения
Вы не можете удалять свои сообщения
Вы не можете добавлять вложения

Перейти:  
Для Мосгорсуда, Роскомнадзора и рекламодателей: mosgorsud-torrent[собачка]yandex.ru
 Вход
ppkBB3cker v.2 © 2008-2014 @ PPK
[ Time : 0.085s | 14 Queries | GZIP : Off ]

Торрент трекер RUTOR.IN, Не можете зайти на rutor.org? Какой новый адрес рутор? Какое зеркало рутор? Не работает rutor.org и зеркала? Тогда наш торрент специально для вас. Rutor.in неофициальное зеркало rutor. В случае если у Вас заблокирован rutor или вдруг Вы не можете на него зайти, то Вы без труда сможете скачать бесплатно и без рекламы последние новинки кино, игр, сериалов и прочего у нас, на Rutor.in. Не нужно использовать прокси, чтобы зайти на рутор, достаточно воспользоваться нашим ресурсом. Все новые фильмы, игры, сериалы, книги и музыка за 2013 и 2014 годы через торрент бесплатно. Скачивайте фильмы в хорошем качестве, игры для пк, xbox, playstation без регистрации. У нас вы найдете новые Зарубежные сериалы и Русские сериалы 2013, 2014, 2015 годов. Оставайтесь с нами, качайте любимые фильмы, игры, сериалы, книги и музыку.