img image001 image001 image001 image001 image001 image001 image001 image001 image001 image001 image001 image001 image001 image001 image001

Planets Sun Sun Sun
Статистика раздачи
Автор: Снежана | Размер: 7.75 ГБ | Добавлен: 24 июл 2013
Раздают: 146    Качают: 15
Скачать торрент
Скачать торрент
Описание торрента

СообщениеДобавлено: 24 июл 2013 



Информация о фильме
Название: Ирония судьбы: Продолжение
Год выхода: 2007
Страна: Россия
Выпущено: Мосфильм
Жанр: Мелодрама, комедия
Продолжительность: 01:53:56
Перевод: Оригинал
Режиссер: Тимур Бекмамбетов
В ролях: Сергей Безруков, Елизавета Боярская, Константин Хабенский, Андрей Мягков, Юрий Яковлев, Барбара Брыльска, Валентина Талызина, Александр Ширвиндт, Александр Белявский, Вилле Хаапасало, Михаил Ефремов, Евгения Добровольская, Константин Мурзенко, Роман Мадянов, Виктор Вержбицкий, Нина Русланова, Инга Оболдина, Анна Семенович, Эльдар Рязанов


О фильме: С того Нового года, когда Женя Лукашин встретил свою Надю, прошло тридцать лет. Время не пощадило их отношений — они расстались, она вернулась в Ленинград. Старые друзья продолжают каждый год ходить в баню, но теперь к ним присоединился Костя — сын Жени Лукашина от нового брака, тоже, впрочем, неудачного. И вот Павел и Александр, ставшие уже дядей Пашей и дядей Сашей, подговаривают Костю совершить для отца новогоднее чудо и отправиться… в Петербург! Но в их хитрый план вмешивается случайность: там, в типовой квартирке по знакомому адресу: 3-я улица Строителей, дом 25, квартира 12, проживает красавица Наденька, дочь той самой Надежды. И именно сегодня её жених Ираклий приезжает, чтобы сделать Наде предложение…




Файл
Кодек: x264
Формат: MKV
Качество: BDRip 1080p
Видео: AVC (High@L4.1) 1920x768 (2.50:1), 23.976 fps, 9300 kbps, 0,263 Bits/Pixel
Аудио: DD (AC-3) 5.1 ch, 448 kbps
Субтитры: Русские, английские
Размер: (1/3 BD)

Скриншоты

General
Unique ID : 187167752748182365818345555532130908134 (0x8CCF32ADC71F1E4CBD770D50947D77E6)
Format : Matroska
Format version : Version 2
File size : 7.75 GiB
Duration : 1h 53mn
Overall bit rate : 9 740 Kbps
Movie name : Ирония судьбы. Продолжение (2007) BDRip (1080p)
Encoded date : UTC 2013-01-10 20:04:31
Writing application : mkvmerge v5.8.0 ('No Sleep / Pillow') built on Sep 2 2012 15:37:04
Writing library : libebml v1.2.3 + libmatroska v1.3.0

Video
ID : 1
Format : AVC
Format/Info : Advanced Video Codec
Format profile : High@L4.1
Format settings, CABAC : Yes
Format settings, ReFrames : 5 frames
Codec ID : V_MPEG4/ISO/AVC
Duration : 1h 53mn
Bit rate : 9 300 Kbps
Width : 1 920 pixels
Height : 768 pixels
Display aspect ratio : 2.500
Frame rate mode : Constant
Frame rate : 23.976 fps
Color space : YUV
Chroma subsampling : 4:2:0
Bit depth : 8 bits
Scan type : Progressive
Bits/(Pixel*Frame) : 0.263
Stream size : 7.24 GiB (93%)
Title : Release by Alex260680
Writing library : x264 core 129 r2230 1cffe9f
Encoding settings : cabac=1 / ref=5 / deblock=1:-2:-2 / analyse=0x3:0x113 / me=umh / subme=10 / psy=1 / psy_rd=1.00:0.10 / mixed_ref=1 / me_range=32 / chroma_me=1 / trellis=2 / 8x8dct=1 / cqm=0 / deadzone=21,11 / fast_pskip=0 / chroma_qp_offset=-3 / threads=12 / lookahead_threads=2 / sliced_threads=0 / nr=0 / decimate=0 / interlaced=0 / bluray_compat=0 / constrained_intra=0 / bframes=5 / b_pyramid=2 / b_adapt=2 / b_bias=0 / direct=3 / weightb=1 / open_gop=0 / weightp=2 / keyint=240 / keyint_min=23 / scenecut=40 / intra_refresh=0 / rc=2pass / mbtree=0 / bitrate=9300 / ratetol=1.0 / qcomp=0.60 / qpmin=0 / qpmax=69 / qpstep=4 / cplxblur=20.0 / qblur=0.5 / ip_ratio=1.40 / pb_ratio=1.30 / aq=1:0.70
Language : Russian
Default : Yes
Forced : No

Audio
ID : 2
Format : AC-3
Format/Info : Audio Coding 3
Mode extension : CM (complete main)
Format settings, Endianness : Big
Codec ID : A_AC3
Duration : 1h 53mn
Bit rate mode : Constant
Bit rate : 448 Kbps
Channel(s) : 6 channels
Channel positions : Front: L C R, Side: L R, LFE
Sampling rate : 48.0 KHz
Bit depth : 16 bits
Compression mode : Lossy
Stream size : 365 MiB (5%)
Title : Original
Language : Russian
Default : Yes
Forced : No

Text #1
ID : 3
Format : UTF-8
Codec ID : S_TEXT/UTF8
Codec ID/Info : UTF-8 Plain Text
Language : Russian
Default : No
Forced : No

Text #2
ID : 4
Format : UTF-8
Codec ID : S_TEXT/UTF8
Codec ID/Info : UTF-8 Plain Text
Language : English
Default : No
Forced : No

Menu
00:00:00.000 : en:Chapter1
00:05:01.050 : en:Chapter2
00:11:54.130 : en:Chapter3
00:19:10.107 : en:Chapter4
00:27:15.592 : en:Chapter5
00:33:31.092 : en:Chapter6
00:40:29.260 : en:Chapter7
00:48:02.421 : en:Chapter8
00:53:07.225 : en:Chapter9
01:00:14.402 : en:Chapter10
01:06:32.321 : en:Chapter11
01:11:17.064 : en:Chapter12
01:17:11.084 : en:Chapter13
01:23:31.256 : en:Chapter14
01:30:41.811 : en:Chapter15
01:38:45.628 : en:Chapter16
01:43:28.619 : en:Chapter17
01:49:03.453 : en:Chapter18

x264 [info]: frame I:1252 Avg QP:18.42 size:169943
x264 [info]: frame P:37042 Avg QP:21.08 size: 78334
x264 [info]: frame B:125607 Avg QP:23.17 size: 38403


Релиз от: Alex260680




   Похожие торренты   Торрент   Размер 
В этой теме нет новых непрочитанных сообщений. Ирония судьбы. Продолжение (2007) Blu-Ray 1080p | Лицензия

12 | 8

35.95 ГБ

В этой теме нет новых непрочитанных сообщений. Ирония судьбы. Продолжение (2007) Blu-Ray Remux 1080p от ivandubskoj | Лицензия

267 | 14

23.15 ГБ

В этой теме нет новых непрочитанных сообщений. Ирония судьбы. Продолжение (2007) BDRip by NB

49 | 10

1.46 ГБ

В этой теме нет новых непрочитанных сообщений. Ирония судьбы. Продолжение (2007) BDRip-AVC от R.G. AVI AVC

329 | 23

1.46 ГБ

В этой теме нет новых непрочитанных сообщений. Ирония судьбы. Продолжение (2007) BDRip от HQCLUB

784 | 19

2.18 ГБ

В этой теме нет новых непрочитанных сообщений. Ирония судьбы. Продолжение (2007) BDRip 720p

89 | 13

4.36 ГБ

В этой теме нет новых непрочитанных сообщений. Ирония судьбы: Продолжение (2007) BDRip-AVC от 0ptimus

130 | 8

2.42 ГБ




Вы не можете начинать темы
Вы не можете отвечать на сообщения
Вы не можете редактировать свои сообщения
Вы не можете удалять свои сообщения
Вы не можете добавлять вложения

Перейти:  
Для Мосгорсуда, Роскомнадзора и рекламодателей: mosgorsud-torrent[собачка]yandex.ru
 Вход
ppkBB3cker v.2 © 2008-2014 @ PPK
[ Time : 7.005s | 14 Queries | GZIP : On ]
CGP output time : 0.019s | 7 Queries | GZIP : On

Торрент трекер RUTOR.IN, Не можете зайти на rutor.org? Какой новый адрес рутор? Какое зеркало рутор? Не работает rutor.org и зеркала? Тогда наш торрент специально для вас. Rutor.in неофициальное зеркало rutor. В случае если у Вас заблокирован rutor или вдруг Вы не можете на него зайти, то Вы без труда сможете скачать бесплатно и без рекламы последние новинки кино, игр, сериалов и прочего у нас, на Rutor.in. Не нужно использовать прокси, чтобы зайти на рутор, достаточно воспользоваться нашим ресурсом. Все новые фильмы, игры, сериалы, книги и музыка за 2013 и 2014 годы через торрент бесплатно. Скачивайте фильмы в хорошем качестве, игры для пк, xbox, playstation без регистрации. У нас вы найдете новые Зарубежные сериалы и Русские сериалы 2013, 2014, 2015 годов. Оставайтесь с нами, качайте любимые фильмы, игры, сериалы, книги и музыку.