img image001 image001 image001 image001 image001 image001 image001 image001 image001 image001 image001 image001 image001 image001 image001

Planets Sun Sun Sun
Статистика раздачи
Автор: Снежана | Размер: 744.79 МБ | Добавлен: 24 июл 2013
Раздают: 58    Качают: 15
Скачать торрент
Скачать торрент
Описание торрента

СообщениеДобавлено: 24 июл 2013 

#77
Страна: СССР
Год выпуска: 1954
Студия: Мосфильм

Жанр: комедия
Продолжительность: 01:28:36

Перевод: не требуется
Оригинальная аудиодорожка: русский
Cубтитры: нет

Режиссер: Николай Досталь, Андрей Тутышкин

В ролях: Аркадий Райкин, Людмила Целиковская, Михаил Яншин, Василий Меркурьев, Ева Милютина, Елизавета Уварова (...секретарь директора театра), Мария Миронова, Михаил Пуговкин, Ольга Аросева, Николай Трофимов, Владимир Гуляев (...велосипедист), Сергей Филиппов, Анатолий Кузнецов, Зинаида Шарко, Андрей Тутышкин, Владимир Лепко, Алексей Кузнецов, Алексей Бахарь (...пассажир в поезде)...

Описание: Известный актер Геннадий Максимов едет на юг, в Крым, вместе с женой Ларисой. Ее снимают прямо с поезда, чтобы заменить заболевшую актрису. Максимову приходится добираться до Крыма одному. Он отстает от поезда, встречается со многими людьми, и каждая встреча превращается в сатирическую, театральную миниатюру...





Исходник: DVD5 R5
Тип релиза: DVDRip
Контейнер: AVI

Видео: 656x480 (4:3), 25 fps, XviD ~ 1037 kbps avg, 0.132 bit/pixel
Аудио: 48 kHz, Dolby MP3 2.0, 128 kbps

Раздача от:
Общее
Полное имя : My.s.vami.gde-to.vstrechalis'.1954.DVDRip_[Youtracker]_by_AVP Studio.avi
Формат : AVI
Формат/Информация : Audio Video Interleave
Размер файла : 745 Мбайт
Продолжительность : 1 ч. 28 м.
Общий поток : 1175 Кбит/сек
Программа кодирования : VirtualDubMod 1.5.10.3 | www.virtualdub-fr.org || (build 2550/release)
Библиотека кодирования : VirtualDubMod build 2550/release

Видео
Идентификатор : 0
Формат : MPEG-4 Visual
Профиль формата : Advanced Simple@L5
Параметр BVOP формата : 1
Параметр QPel формата : Нет
Параметр GMC формата : Без точки перехода
Параметр матрицы формата : Выборочная
Идентификатор кодека : XVID
Идентификатор кодека/Подсказка : XviD
Продолжительность : 1 ч. 28 м.
Битрейт : 1037 Кбит/сек
Ширина : 656 пикселей
Высота : 480 пикселей
Соотношение сторон : 4:3
Частота кадров : 25,000 кадров/сек
Цветовое пространство : YUV
Субдискретизация насыщенности : 4:2:0
Битовая глубина : 8 бит
Тип развёртки : Прогрессивная
Метод сжатия : С потерями
Бит/(Пиксели*Кадры) : 0.132
Размер потока : 658 Мбайт (88%)
Библиотека кодирования : XviD 65

Аудио
Идентификатор : 1
Формат : MPEG Audio
Версия формата : Version 1
Профиль формата : Layer 3
Идентификатор кодека : 55
Идентификатор кодека/Подсказка : MP3
Продолжительность : 1 ч. 28 м.
Вид битрейта : Постоянный
Битрейт : 128 Кбит/сек
Каналы : 2 канала
Частота : 48,0 КГц
Метод сжатия : С потерями
Размер потока : 81,1 Мбайт (11%)
Выравнивание : Соединение по промежуткам
Продолжительность промежутка : 40 мс. (1,00 видеокадр)
Время предзагрузки промежутка : 504 мс.
Библиотека кодирования : L3.99r
Настройки программы : -m s -V 4 -q 2 -lowpass 17 -b 128





   Похожие торренты   Торрент   Размер 
В этой теме нет новых непрочитанных сообщений. Мы с вами где-то встречались (1954) DVDRip-AVC от Youtracker

410 | 9

1.46 ГБ

В этой теме нет новых непрочитанных сообщений. Мы с вами где-то встречались (1954) DVD5 от Youtracker

11 | 14

4.07 ГБ

В этой теме нет новых непрочитанных сообщений. Мы с вами где-то встречались (1954) DVDRip

533 | 29

1.46 ГБ

В этой теме нет новых непрочитанных сообщений. Мы с вами где-то встречались (1954) SATRemux от SilverCinema

0 | 2

1.84 ГБ

В этой теме нет новых непрочитанных сообщений. Укротительница тигров (1954) DVDRip-AVC от Youtracker

9 | 5

1.46 ГБ

В этой теме нет новых непрочитанных сообщений. Укротительница тигров (1954) DVDRip от Youtracker

11 | 6

1.46 ГБ

В этой теме нет новых непрочитанных сообщений. Укротительница тигров (1954) DVDRip от Youtracker

19 | 8

744.82 МБ




Вы не можете начинать темы
Вы не можете отвечать на сообщения
Вы не можете редактировать свои сообщения
Вы не можете удалять свои сообщения
Вы не можете добавлять вложения

Перейти:  
Для Мосгорсуда, Роскомнадзора и рекламодателей: mosgorsud-torrent[собачка]yandex.ru
 Вход
ppkBB3cker v.2 © 2008-2014 @ PPK
[ Time : 0.123s | 15 Queries | GZIP : Off ]

Торрент трекер RUTOR.IN, Не можете зайти на rutor.org? Какой новый адрес рутор? Какое зеркало рутор? Не работает rutor.org и зеркала? Тогда наш торрент специально для вас. Rutor.in неофициальное зеркало rutor. В случае если у Вас заблокирован rutor или вдруг Вы не можете на него зайти, то Вы без труда сможете скачать бесплатно и без рекламы последние новинки кино, игр, сериалов и прочего у нас, на Rutor.in. Не нужно использовать прокси, чтобы зайти на рутор, достаточно воспользоваться нашим ресурсом. Все новые фильмы, игры, сериалы, книги и музыка за 2013 и 2014 годы через торрент бесплатно. Скачивайте фильмы в хорошем качестве, игры для пк, xbox, playstation без регистрации. У нас вы найдете новые Зарубежные сериалы и Русские сериалы 2013, 2014, 2015 годов. Оставайтесь с нами, качайте любимые фильмы, игры, сериалы, книги и музыку.