img image001 image001 image001 image001 image001 image001 image001 image001 image001 image001 image001 image001 image001 image001 image001

Planets Sun Sun Sun
Статистика раздачи
Автор: Снежана | Размер: 1.45 ГБ | Добавлен: 24 июл 2013
Раздают: 171    Качают: 11
Скачать торрент
Скачать торрент
Описание торрента

СообщениеДобавлено: 24 июл 2013 

#77
Страна: СССР
Год выпуска: 1959
Студия: Ленфильм

Жанр: драма, мелодрама
Продолжительность: 01:42:01

Перевод: не требуется
Оригинальная аудиодорожка: русский
Cубтитры: нет

Режиссер: Иосиф Хейфиц

В ролях: Алексей Баталов, Инна Макарова, Петр Константинов, Леонид Быков, Борис Чирков, Иван Переверзев, Юрий Медведев, Цецилия Мансурова, Лидия Штыкан, Петр Кирюткин, Павел Усовниченко, Михаил Екатерининский, Любовь Малиновская, Б.Виноградова, В.Журавская...

Описание: Врач Владимир Устименко — человек долга и чести, предан делу, которому служит, и предан одной-единственной любви, которую проносит через всю жизнь: любви к Варе Степановой, взбалмошной девчонке, мечтающей стать великой актрисой, но ставшей геологом. Война жестоко вмешается в судьбы героев и ещё больше напутает в их, и без того хрупких, отношениях. После долгой и неожиданной разлуки герои впервые встретятся во фронтовом госпитале, где военврач Устименко будет оперировать неприходящую в сознание «трудную» пациентку — Варю Степанову…





Фильм о настоящем человеке.

Мне трудно вспомнить хотя бы еще один фильм о настоящем человеке.
Этот фильм не о коммунизме и не о войне. Этот фильм о личности, о принципах, о человеке, который верен слову и своей чести, долгу.
Забытые сейчас ценности, так необходимые сегодня в жизни, — воспеты в призме одной личности. Человека с большой буквы.
Фильм о непростой судьбе необыкновенного человека.
Необыкновенного именно потому, что в действиях своих он руководствуется принципами совести, морали и нравственности, чувством долга и полным отсутствием эгоизма.
Не размениваясь на регалии и звания, накопительство, главный герой фильма не боится испытаний и трудностей.
До этого фильма надо дорасти.
«Пропаганда» коммунизма занимает весьма посредственное место, скорей имеет место пропаганда человеческих ценностей. Весьма глупо оценивать фильм как «советский».
Этот фильм можно и нужно пересматривать ни один раз, наслаждаясь игрой великолепных актеров.

Именно такие фильмы надо пересматривать постоянно и показывать детям.

Исходник: DVD9 R5
Тип релиза: DVDRip
Контейнер: AVI

Видео: 720x528 (1,381:1), 25 fps, XviD ~ 1840 kbps avg, 0.194 bit/pixel
Аудио: 48 kHz, Dolby AC3 2.0, 192 kbps

Раздача от:
Общее
Полное имя : Dorogoj.moj.chelovek.1959.DVDRip_[Youtracker]_by_AVP Studio.avi
Формат : AVI
Формат/Информация : Audio Video Interleave
Размер файла : 1,45 Гбайт
Продолжительность : 1 ч. 42 м.
Общий поток : 2042 Кбит/сек
Программа кодирования : VirtualDubMod 1.5.10.3 | www.virtualdub-fr.org || (build 2550/release)
Библиотека кодирования : VirtualDubMod build 2550/release

Видео
Идентификатор : 0
Формат : MPEG-4 Visual
Профиль формата : Advanced Simple@L5
Параметр BVOP формата : 1
Параметр QPel формата : Нет
Параметр GMC формата : Без точки перехода
Параметр матрицы формата : Выборочная
Идентификатор кодека : XVID
Идентификатор кодека/Подсказка : XviD
Продолжительность : 1 ч. 42 м.
Битрейт : 1840 Кбит/сек
Ширина : 720 пикселей
Высота : 528 пикселей
Соотношение сторон : 4:3
Частота кадров : 25,000 кадров/сек
Цветовое пространство : YUV
Субдискретизация насыщенности : 4:2:0
Битовая глубина : 8 бит
Тип развёртки : Прогрессивная
Метод сжатия : С потерями
Бит/(Пиксели*Кадры) : 0.194
Размер потока : 1,31 Гбайт (90%)
Библиотека кодирования : XviD 65

Аудио
Идентификатор : 1
Формат : AC-3
Формат/Информация : Audio Coding 3
Расширение режима : CM (complete main)
Идентификатор кодека : 2000
Продолжительность : 1 ч. 42 м.
Вид битрейта : Постоянный
Битрейт : 192 Кбит/сек
Каналы : 2 канала
Расположение каналов : Front: L R
Частота : 48,0 КГц
Битовая глубина : 16 бит
Метод сжатия : С потерями
Размер потока : 140 Мбайт (9%)
Выравнивание : Разделение по промежуткам
Продолжительность промежутка : 40 мс. (1,00 видеокадр)
Время предзагрузки промежутка : 500 мс





   Похожие торренты   Торрент   Размер 
В этой теме нет новых непрочитанных сообщений. Дорогой мой человек (1959) DVDRip-AVC от Youtracker

156 | 2

1.46 ГБ

В этой теме нет новых непрочитанных сообщений. Дорогой мой человек (1959) DVDRip-AVC от ExKinoRay

63 | 11

2.09 ГБ

В этой теме нет новых непрочитанных сообщений. Дорогой мой человек (1958) DVDRip от ENGINEER | Реставрация

352 | 35

1.46 ГБ

В этой теме нет новых непрочитанных сообщений. Неподдающиеся (1959) DVDRip от Youtracker

7 | 9

744.44 МБ

В этой теме нет новых непрочитанных сообщений. Неподдающиеся (1959) DVDRip от Youtracker

11 | 11

1.46 ГБ

В этой теме нет новых непрочитанных сообщений. Неподдающиеся (1959) DVDRip-AVC от Youtracker

43 | 23

1.46 ГБ

В этой теме нет новых непрочитанных сообщений. Дорогой мой человек [01-16] (2011) SATRip

16 | 14

7.37 ГБ




Вы не можете начинать темы
Вы не можете отвечать на сообщения
Вы не можете редактировать свои сообщения
Вы не можете удалять свои сообщения
Вы не можете добавлять вложения

Перейти:  
Для Мосгорсуда, Роскомнадзора и рекламодателей: mosgorsud-torrent[собачка]yandex.ru
 Вход
ppkBB3cker v.2 © 2008-2014 @ PPK
[ Time : 0.051s | 16 Queries | GZIP : Off ]

Торрент трекер RUTOR.IN, Не можете зайти на rutor.org? Какой новый адрес рутор? Какое зеркало рутор? Не работает rutor.org и зеркала? Тогда наш торрент специально для вас. Rutor.in неофициальное зеркало rutor. В случае если у Вас заблокирован rutor или вдруг Вы не можете на него зайти, то Вы без труда сможете скачать бесплатно и без рекламы последние новинки кино, игр, сериалов и прочего у нас, на Rutor.in. Не нужно использовать прокси, чтобы зайти на рутор, достаточно воспользоваться нашим ресурсом. Все новые фильмы, игры, сериалы, книги и музыка за 2013 и 2014 годы через торрент бесплатно. Скачивайте фильмы в хорошем качестве, игры для пк, xbox, playstation без регистрации. У нас вы найдете новые Зарубежные сериалы и Русские сериалы 2013, 2014, 2015 годов. Оставайтесь с нами, качайте любимые фильмы, игры, сериалы, книги и музыку.