img image001 image001 image001 image001 image001 image001 image001 image001 image001 image001 image001 image001 image001 image001 image001

Planets Sun Sun Sun
Статистика раздачи
Автор: Снежана | Размер: 1.46 ГБ | Добавлен: 24 июл 2013
Раздают: 2314    Качают: 95
Скачать торрент
Скачать торрент
Описание торрента

СообщениеДобавлено: 24 июл 2013 

"Это вам не такси, это военный корабль! Да я авианосец могу на дно пустить... ну, если повезет"


#77
Год выпуска: 1998
Жанр: Комедия
Продолжительность: 01:34:45
Кинокомпания : СТВ при участии «Никола-Фильм»

Режиссер: Александр Рогожкин
Сценарий: Александр Рогожкин
Продюсеры: Сергей Сельянов, Игорь Каленов
Исполнительный продюсер: Дмитрий Делов
Оператор: Валерий Мартынов

В ролях: Алексей Булдаков, Виктор Бычков, Семен Стругачев, Сергей Русскин, Сергей Гусинский, Василий Домрачев, Алексей Севастьянов, Андрей Краско, Вилле Хаапасало

Описание: Генерал Иволгин, егерь Кузьмич, Лёва Соловейчик и компания, знакомые зрителям по фильму «Особенности национальной охоты» отправляются на рыбалку. Не без помощи водки, выйдя в море они сбились с курса и оказались на территории сопредельного государства — Финляндии. В частном отеле на берегу Финского залива, который «рыбаки» сперва принимают за российскую турбазу, пьянка продолжается. По утру проснувшись, протрезвев и осознав, что они нелегально находятся за рубежом, участники рыбалки удирают обратно в Россию, в спешке забыв в отеле 15 ящиков водки «Урожай». Вскоре в отель нагрянула полиция и его хозяевам грозит обвинение в контрабанде спиртного. А у «рыболовов» встаёт новая задача — вернуть честно купленную водку. Помогают им в этом российские военные моряки и подводная лодка «Малютка», в качестве которой выступали две сверхмалые подводные лодки проекта 865 «Пиранья»





Исходник: DVD5
Тип релиза: DVDRip-AVC
Контейнер: MKV

Видео: 688x452@736x452 (1,624:1), 25 fps, AVC ~ 1750 kbps avg, 0.225 bit/pixel
Аудио: 48 kHz, AC3, 6 ch, 448.00 kbps

Раздача от:
Общее
Полное имя : Nacional'nye.osobennostiOsobennosti.nacional'noj.rybalki.1998.DVDRip-AVC.mkv
Формат : Matroska
Версия формата : Version 2
Размер файла : 1,46 Гбайт
Продолжительность : 1 ч. 34 м.
Общий поток : 2200 Кбит/сек
Название фильма : Osobennosti.nacional'noj.rybalki.1998.DVDRip-AVC
Дата кодирования : UTC 2012-02-03 01:37:26
Программа кодирования : mkvmerge v5.2.0 ('I can't explain') built on Dec 18 2011 18:12:03
Библиотека кодирования : libebml v1.2.3 + libmatroska v1.3.0

Видео
Идентификатор : 1
Формат : AVC
Формат/Информация : Advanced Video Codec
Профиль формата : High@L4.1
Параметр CABAC формата : Да
Параметр ReFrames формата : 6 кадров
Идентификатор кодека : V_MPEG4/ISO/AVC
Продолжительность : 1 ч. 34 м.
Битрейт : 1750 Кбит/сек
Ширина : 688 пикселей
Высота : 452 пикселя
Соотношение сторон : 1,622
Соотношение сторон в оригинале : 1,624
Частота кадров : 25,000 кадров/сек
Цветовое пространство : YUV
Субдискретизация насыщенности : 4:2:0
Битовая глубина : 8 бит
Тип развёртки : Прогрессивная
Бит/(Пиксели*Кадры) : 0.225
Размер потока : 1,13 Гбайт (78%)
Заголовок : Источник DVD
Библиотека кодирования : x264 core 119 r2106 07efeb4
Настройки программы : cabac=1 / ref=6 / deblock=1:-2:-1 / analyse=0x3:0x113 / me=umh / subme=6 / psy=1 / psy_rd=1.00:0.10 / mixed_ref=1 / me_range=32 / chroma_me=1 / trellis=1 / 8x8dct=1 / cqm=0 / deadzone=21,11 / fast_pskip=1 / chroma_qp_offset=-3 / threads=3 / sliced_threads=0 / nr=0 / decimate=1 / interlaced=0 / bluray_compat=0 / constrained_intra=0 / bframes=6 / b_pyramid=2 / b_adapt=1 / b_bias=0 / direct=3 / weightb=1 / open_gop=0 / weightp=0 / keyint=250 / keyint_min=25 / scenecut=40 / intra_refresh=0 / rc_lookahead=60 / rc=2pass / mbtree=1 / bitrate=1750 / ratetol=1.0 / qcomp=0.60 / qpmin=0 / qpmax=69 / qpstep=4 / cplxblur=20.0 / qblur=0.5 / ip_ratio=1.40 / aq=1:1.00
Язык : Russian
Default : Да
Forced : Нет

Аудио
Идентификатор : 2
Формат : AC-3
Формат/Информация : Audio Coding 3
Расширение режима : CM (complete main)
Идентификатор кодека : A_AC3
Продолжительность : 1 ч. 34 м.
Вид битрейта : Постоянный
Битрейт : 448 Кбит/сек
Каналы : 6 каналов
Расположение каналов : Front: L C R, Side: L R, LFE
Частота : 48,0 КГц
Битовая глубина : 16 бит
Метод сжатия : С потерями
Размер потока : 304 Мбайт (20%)
Заголовок : Источник DVD
Язык : Russian
Default : Да
Forced : Нет

Меню
00:00:00.000 : ru:00:00:00.000000000
00:05:00.000 : :00:05:00.000000000
00:10:00.000 : :00:10:00.000000000
00:15:00.000 : :00:15:00.000000000
00:20:00.000 : :00:20:00.000000000
00:25:00.000 : :00:25:00.000000000
00:30:00.000 : :00:30:00.000000000
00:35:00.000 : :00:35:00.000000000
00:40:00.000 : :00:40:00.000000000
00:45:00.000 : :00:45:00.000000000
00:50:00.000 : :00:50:00.000000000
00:55:00.000 : :00:55:00.000000000
01:00:00.000 : :01:00:00.000000000
01:05:00.000 : :01:05:00.000000000
01:10:00.000 : :01:10:00.000000000
01:15:00.000 : :01:15:00.000000000
01:20:00.000 : :01:20:00.000000000
01:25:00.000 : :01:25:00.000000000
01:30:00.000 : :01:30:00.000000000





   Похожие торренты   Торрент   Размер 
В этой теме нет новых непрочитанных сообщений. Особенности национальной рыбалки (1998) DVDRip

481 | 31

1.37 ГБ

В этой теме нет новых непрочитанных сообщений. Особенности национальной рыбалки (1998) DVDRip от RAMpage CHG

128 | 22

701.2 МБ

В этой теме нет новых непрочитанных сообщений. Особенности национальной рыбалки (1998) DVDRip от Sanjar & NeoJet | КПК

118 | 11

285.03 МБ

В этой теме нет новых непрочитанных сообщений. Особенности национальной рыбалки (2004) PC

199 | 7

1.31 ГБ

В этой теме нет новых непрочитанных сообщений. Особенности национальной охоты (1995) DVDRip-AVC от Youtracker

144 | 9

1.46 ГБ

В этой теме нет новых непрочитанных сообщений. Национальные особенности: Коллекция / Особенности национальной... (1995-2007) DVDRip

728 | 112

8.65 ГБ

В этой теме нет новых непрочитанных сообщений. Особенности национальной охоты (1995) DVD5 от Youtracker

192 | 12

4.37 ГБ




Вы не можете начинать темы
Вы не можете отвечать на сообщения
Вы не можете редактировать свои сообщения
Вы не можете удалять свои сообщения
Вы не можете добавлять вложения

Перейти:  
Для Мосгорсуда, Роскомнадзора и рекламодателей: mosgorsud-torrent[собачка]yandex.ru
 Вход
ppkBB3cker v.2 © 2008-2014 @ PPK
[ Time : 0.035s | 18 Queries | GZIP : Off ]
CGP output time : 0.044s | 5 Queries | GZIP : Off

Торрент трекер RUTOR.IN, Не можете зайти на rutor.org? Какой новый адрес рутор? Какое зеркало рутор? Не работает rutor.org и зеркала? Тогда наш торрент специально для вас. Rutor.in неофициальное зеркало rutor. В случае если у Вас заблокирован rutor или вдруг Вы не можете на него зайти, то Вы без труда сможете скачать бесплатно и без рекламы последние новинки кино, игр, сериалов и прочего у нас, на Rutor.in. Не нужно использовать прокси, чтобы зайти на рутор, достаточно воспользоваться нашим ресурсом. Все новые фильмы, игры, сериалы, книги и музыка за 2013 и 2014 годы через торрент бесплатно. Скачивайте фильмы в хорошем качестве, игры для пк, xbox, playstation без регистрации. У нас вы найдете новые Зарубежные сериалы и Русские сериалы 2013, 2014, 2015 годов. Оставайтесь с нами, качайте любимые фильмы, игры, сериалы, книги и музыку.