img image001 image001 image001 image001 image001 image001 image001 image001 image001 image001 image001 image001 image001 image001 image001

Planets Sun Sun Sun
Статистика раздачи
Автор: Снежана | Размер: 1.46 ГБ | Добавлен: 24 июл 2013
Раздают: 56    Качают: 13
Скачать торрент
Скачать торрент
Описание торрента

СообщениеДобавлено: 24 июл 2013 

#77
Страна: СССР
Производство: Мосфильм
Жанр: мелодрама, комедия
Год выпуска: 1963
Продолжительность: 01:13:24

Перевод: не требуется
Оригинальная аудиодорожка: русский
Cубтитры: нет

Режиссер: Георгий Данелия

В ролях: Ролан Быков, Никита Михалков, Галина Польских, Ирина Мирошниченко, Владимир Басов, Олег Видов, Инна Чурикова, Мария Виноградова, Евгений Стеблов, Алексей Локтев...

Описание: Володя работает монтажником в Сибири, в Москве он проездом — его небольшой рассказ, опубликованный в журнале «Юность» вызвал интерес у писателя Воронина, пригласившего Володю на важный разговор. В метро он знакомится с Колей — молодым задорным пареньком, возвращающимся с ночной смены. Володя собирается остановиться у своих друзей, но не знает точно, где находится нужный переулок, Коля предлагает его проводить. На Чистопрудном бульваре Володю кусает оставленная без присмотра собака. Коля приглашает Володю домой, чтобы зашить порванные брюки, знакомит его с семьёй. Вскоре оказывается, что знакомые Володи уехали из Москвы на лето, Володя оставляет вещи у Коли и уходит по делам. Оставшись дома один, Коля надеется выспаться, но неожиданно к нему приходит друг Саша, которого забирают в армию. Саша просит Колю пойти с ним в военкомат, чтобы получить отсрочку от призыва в связи с тем, что Саша сегодня женится на Свете. После военкомата друзья идут в ГУМ, чтобы выбрать жениху новый пиджак. Там они встречают Володю, как раз купившего себе новый костюм, и Коля предлагает вместо пиджака купить невесте подарок. Они идут в магазин пластинок, где работает его знакомая Алёна…





Исходник: DVD9 R5
Тип релиза: DVDRip
Контейнер: AVI

Видео: 720x304 (2.35:1), 25 fps, XviD ~ 2384 kbps avg, 0.436 bit/pixel
Аудио: 48 kHz, Dolby AC3 5.1, 448 kbps

Раздача от:
Общее
Полное имя : Ja.shagaju.po.Moskve.1963.DVDRip_[Youtracker]_by_AVP Studio.avi
Формат : AVI
Формат/Информация : Audio Video Interleave
Размер файла : 1,46 Гбайт
Продолжительность : 1 ч. 13 м.
Общий поток : 2841 Кбит/сек
Программа кодирования : VirtualDubMod 1.5.10.3 | www.virtualdub-fr.org || (build 2550/release)
Библиотека кодирования : VirtualDubMod build 2550/release

Видео
Идентификатор : 0
Формат : MPEG-4 Visual
Профиль формата : Advanced Simple@L5
Параметр BVOP формата : 1
Параметр QPel формата : Нет
Параметр GMC формата : Без точки перехода
Параметр матрицы формата : Выборочная
Идентификатор кодека : XVID
Идентификатор кодека/Подсказка : XviD
Продолжительность : 1 ч. 13 м.
Битрейт : 2384 Кбит/сек
Ширина : 720 пикселей
Высота : 304 пикселя
Соотношение сторон : 2,35:1
Частота кадров : 25,000 кадров/сек
Цветовое пространство : YUV
Субдискретизация насыщенности : 4:2:0
Битовая глубина : 8 бит
Тип развёртки : Прогрессивная
Метод сжатия : С потерями
Бит/(Пиксели*Кадры) : 0.436
Размер потока : 1,22 Гбайт (84%)
Библиотека кодирования : XviD 65

Аудио
Идентификатор : 1
Формат : AC-3
Формат/Информация : Audio Coding 3
Расширение режима : CM (complete main)
Идентификатор кодека : 2000
Продолжительность : 1 ч. 13 м.
Вид битрейта : Постоянный
Битрейт : 448 Кбит/сек
Каналы : 6 каналов
Расположение каналов : Front: L C R, Side: L R, LFE
Частота : 48,0 КГц
Битовая глубина : 16 бит
Метод сжатия : С потерями
Размер потока : 235 Мбайт (16%)
Выравнивание : Разделение по промежуткам
Продолжительность промежутка : 40 мс. (1,00 видеокадр)
Время предзагрузки промежутка : 500 мс





   Похожие торренты   Торрент   Размер 
В этой теме нет новых непрочитанных сообщений. Я шагаю по Москве (1963) DVDRip-AVC от Youtracker

249 | 9

1.46 ГБ

В этой теме нет новых непрочитанных сообщений. Я шагаю по Москве (1963) DVDRip от Youtracker

82 | 5

744.36 МБ

В этой теме нет новых непрочитанных сообщений. Я шагаю по Москве (1963) DVD5 от Youtracker | Сжатый

0 | 4

4.36 ГБ

В этой теме нет новых непрочитанных сообщений. Я шагаю по Москве (1963) DVDrip от PlanetaUA

40 | 5

1.46 ГБ

В этой теме нет новых непрочитанных сообщений. Я шагаю по Москве (1963) DVDRip от MediaClub | КПК

66 | 9

329.26 МБ

В этой теме нет новых непрочитанных сообщений. Я шагаю по Москве (1963) HDDVDRip от Шкипер

33 | 1

743.96 МБ

В этой теме нет новых непрочитанных сообщений. Я шагаю по Москве (1963) HDDVDRip 720p от ExKinoRay

168 | 20

2.91 ГБ




Вы не можете начинать темы
Вы не можете отвечать на сообщения
Вы не можете редактировать свои сообщения
Вы не можете удалять свои сообщения
Вы не можете добавлять вложения

Перейти:  
Для Мосгорсуда, Роскомнадзора и рекламодателей: mosgorsud-torrent[собачка]yandex.ru
 Вход
ppkBB3cker v.2 © 2008-2014 @ PPK
[ Time : 0.019s | 14 Queries | GZIP : Off ]

Торрент трекер RUTOR.IN, Не можете зайти на rutor.org? Какой новый адрес рутор? Какое зеркало рутор? Не работает rutor.org и зеркала? Тогда наш торрент специально для вас. Rutor.in неофициальное зеркало rutor. В случае если у Вас заблокирован rutor или вдруг Вы не можете на него зайти, то Вы без труда сможете скачать бесплатно и без рекламы последние новинки кино, игр, сериалов и прочего у нас, на Rutor.in. Не нужно использовать прокси, чтобы зайти на рутор, достаточно воспользоваться нашим ресурсом. Все новые фильмы, игры, сериалы, книги и музыка за 2013 и 2014 годы через торрент бесплатно. Скачивайте фильмы в хорошем качестве, игры для пк, xbox, playstation без регистрации. У нас вы найдете новые Зарубежные сериалы и Русские сериалы 2013, 2014, 2015 годов. Оставайтесь с нами, качайте любимые фильмы, игры, сериалы, книги и музыку.