img image001 image001 image001 image001 image001 image001 image001 image001 image001 image001 image001 image001 image001 image001 image001

Planets Sun Sun Sun
Статистика раздачи
Автор: Снежана | Размер: 1.07 ГБ | Добавлен: 24 июл 2013
Раздают: 51    Качают: 10
Скачать торрент
Скачать торрент
Описание торрента

СообщениеДобавлено: 24 июл 2013 

#77

Информация о фильме
Название: С новым годом, мамы!
Год выхода: 2012
Жанр: Комедия, семейный
Режиссер: Сарик Андреасян, Артем Аксененко, Дмитрий Грачев
В ролях: Елизавета Боярская, Максим Матвеев, Павел Воля, Ирина Розанова, Ален Делон, Екатерина Вилкова, Светлана Иванова, Максим Виторган, Константин Крюков, Гарик Харламов, Виктор Васильев, Агния Дитковските, Татьяна Васильева, Евгения Каверау, Луиза-Габриэла Бровина, Екатерина Климова, Ольга Сутулова, Анна Банщикова, Станислав Садальский, Раиса Рязанова, Карэн Бадалов, Валентина Рубцова, Сергей Серов, Александр Сазонов

О фильме:
В новой ленте зрители увидят новые истории и новые приключения новых героев, объединенных одним чувством — любовью к МАМЕ. 5 новелл. Смешные и трогательные, лиричные и комичные — каждая новелла расскажет историю мамы и ребенка, двух самых близких людей на свете. Ведь чтобы не происходило, мама всегда остается тем человеком, который будет любить всегда и несмотря ни на что…

Страна: Россия
Студия: Enjoy Movies
Продолжительность: 01:21:02
Перевод: Не требуется

Файл
Кодек: h.264
Качество: DVDRip-AVC
Видео: MPEG-4 AVC, 1433 Кбит/с, 716x432@1018x432, 25.000 кадр/с

Аудио: AC3, 6 ch, 448 Кбит/с

Полное имя : S.novim.godom.mami.2012.x264.DVDRip.(AVC).mkv
Формат : Matroska
Версия формата : Version 2
Размер файла : 1,07 Гбайт
Продолжительность : 1 ч. 21 м.
Общий поток : 1883 Кбит/сек
Название фильма : С новым годом, мамы! [2012]
Дата кодирования : UTC 2013-01-18 10:29:52
Программа кодирования : mkvmerge v5.8.0 ('No Sleep / Pillow') built on Sep 2 2012 15:37:04
Библиотека кодирования : libebml v1.2.3 + libmatroska v1.3.0

Видео
Идентификатор : 1
Формат : AVC
Формат/Информация : Advanced Video Codec
Профиль формата : High@L4.1
Параметр CABAC формата : Да
Параметр ReFrames формата : 12 кадров
Идентификатор кодека : V_MPEG4/ISO/AVC
Продолжительность : 1 ч. 21 м.
Битрейт : 1433 Кбит/сек
Ширина : 716 пикселей
Высота : 432 пикселя
Соотношение сторон : 2,35:1
Соотношение сторон в оригинале : 2,35:1
Режим частоты кадров : Постоянный
Частота кадров : 25,000 кадров/сек
Цветовое пространство : YUV
Субдискретизация насыщенности : 4:2:0
Битовая глубина : 8 бит
Тип развёртки : Прогрессивная
Бит/(Пиксели*Кадры) : 0.185
Размер потока : 810 Мбайт (74%)
Библиотека кодирования : x264 core 129 r2245 bc13772
Настройки программы : cabac=1 / ref=12 / deblock=1:-3:-3 / analyse=0x3:0x113 / me=umh / subme=11 / psy=1 / psy_rd=1.00:0.20 / mixed_ref=1 / me_range=32 / chroma_me=1 / trellis=2 / 8x8dct=1 / cqm=0 / deadzone=21,11 / fast_pskip=0 / chroma_qp_offset=-3 / threads=4 / lookahead_threads=1 / sliced_threads=0 / nr=0 / decimate=0 / interlaced=0 / bluray_compat=0 / constrained_intra=0 / bframes=9 / b_pyramid=2 / b_adapt=2 / b_bias=0 / direct=3 / weightb=1 / open_gop=0 / weightp=2 / keyint=250 / keyint_min=25 / scenecut=40 / intra_refresh=0 / rc_lookahead=40 / rc=2pass / mbtree=0 / bitrate=1433 / ratetol=1.0 / qcomp=0.60 / qpmin=0 / qpmax=69 / qpstep=4 / cplxblur=20.0 / qblur=0.5 / vbv_maxrate=50000 / vbv_bufsize=50000 / nal_hrd=none / ip_ratio=1.40 / pb_ratio=1.30 / aq=1:1.00
Язык : Russian
Default : Да
Forced : Да

Аудио
Идентификатор : 2
Формат : AC-3
Формат/Информация : Audio Coding 3
Расширение режима : CM (complete main)
Параметр Endianness формата : Big
Идентификатор кодека : A_AC3
Продолжительность : 1 ч. 21 м.
Вид битрейта : Постоянный
Битрейт : 448 Кбит/сек
Каналы : 6 каналов
Расположение каналов : Front: L C R, Side: L R, LFE
Частота : 48,0 КГц
Битовая глубина : 16 бит
Метод сжатия : С потерями
Размер потока : 260 Мбайт (24%)
Язык : Russian
Default : Да
Forced : Да

Меню
00:00:00.000 : :Chapter 01
00:10:16.320 : :Chapter 02
00:20:34.560 : :Chapter 03
00:29:50.400 : :Chapter 04
00:39:23.520 : :Chapter 05
00:50:20.640 : :Chapter 06
01:01:12.960 : :Chapter 07
01:12:54.720 : :Chapter 08

x264 [info]: frame I:1161 Avg QP:15.47 size: 41525
x264 [info]: frame P:27019 Avg QP:18.46 size: 14667
x264 [info]: frame B:93382 Avg QP:20.27 size: 4568








   Похожие торренты   Торрент   Размер 
В этой теме нет новых непрочитанных сообщений. С новым годом, мамы! (2012) DVDRip от Generalfilm | КПК

4 | 3

307.58 МБ

В этой теме нет новых непрочитанных сообщений. С новым годом, мамы! (2012) DVDRip | iPhone

2 | 3

447.13 МБ

В этой теме нет новых непрочитанных сообщений. С новым годом, мамы! (2012) DVDRip от Youtracker | Лицензия

3 | 2

745.09 МБ

В этой теме нет новых непрочитанных сообщений. С новым годом, мамы! (2012) DVDRip от Scarabey | Лицензия

2 | 4

741.07 МБ

В этой теме нет новых непрочитанных сообщений. С новым годом, мамы! (2012) DVDRip от Scarabey | Лицензия

6 | 5

1.45 ГБ

В этой теме нет новых непрочитанных сообщений. С новым годом, мамы! (2012) DVDRip от Youtracker | Лицензия

42 | 6

1.46 ГБ

В этой теме нет новых непрочитанных сообщений. С новым годом, мамы! (2012) Blu-ray 1080p

4 | 2

13.29 ГБ




Вы не можете начинать темы
Вы не можете отвечать на сообщения
Вы не можете редактировать свои сообщения
Вы не можете удалять свои сообщения
Вы не можете добавлять вложения

Перейти:  
Для Мосгорсуда, Роскомнадзора и рекламодателей: mosgorsud-torrent[собачка]yandex.ru
 Вход
ppkBB3cker v.2 © 2008-2014 @ PPK
[ Time : 1.677s | 14 Queries | GZIP : Off ]

Торрент трекер RUTOR.IN, Не можете зайти на rutor.org? Какой новый адрес рутор? Какое зеркало рутор? Не работает rutor.org и зеркала? Тогда наш торрент специально для вас. Rutor.in неофициальное зеркало rutor. В случае если у Вас заблокирован rutor или вдруг Вы не можете на него зайти, то Вы без труда сможете скачать бесплатно и без рекламы последние новинки кино, игр, сериалов и прочего у нас, на Rutor.in. Не нужно использовать прокси, чтобы зайти на рутор, достаточно воспользоваться нашим ресурсом. Все новые фильмы, игры, сериалы, книги и музыка за 2013 и 2014 годы через торрент бесплатно. Скачивайте фильмы в хорошем качестве, игры для пк, xbox, playstation без регистрации. У нас вы найдете новые Зарубежные сериалы и Русские сериалы 2013, 2014, 2015 годов. Оставайтесь с нами, качайте любимые фильмы, игры, сериалы, книги и музыку.