img image001 image001 image001 image001 image001 image001 image001 image001 image001 image001 image001 image001 image001 image001 image001

Planets Sun Sun Sun
Статистика раздачи
Автор: Снежана | Размер: 1.09 ГБ | Добавлен: 24 июл 2013
Раздают: 5    Качают: 3
Скачать торрент
Скачать торрент
Описание торрента

СообщениеДобавлено: 24 июл 2013 

#77
Страна: СССР
Производство: Студия Довженко
Жанр: комедия
Год выпуска: 1964
Продолжительность: 01:12:59

Перевод: не требуется
Оригинальная аудиодорожка: русский
Cубтитры: нет

Режиссер: Виктор Иванов

В ролях: Николай Рушковский, Александр Леньков, Валерий Бессараб, Вячеслав Воронин, Зоя Вихорева, Наталья Суровегина, Генрих Осташевский, Александр Гай, Андрей Гончар, Людмила Сосюра, Маргарита Кошелева, Анна Кушниренко, Владимир Волков...

Описание:
Герои фильма — бравые воины-ракетчики. В одной воинской части судьба сводит лейтенанта Кириллова, новобранца Лагоду, юную Полину и военврача Анну. После всевозможных ссор по пустякам, которые так свойственны молодым людям, сердца четырех героев, наконец, успокоятся, и в дивизионе будут сыграны аж целых две комсомольские свадьбы…





Исходник: DVD5 R5
Тип релиза: DVDRip-AVC
Контейнер: MKV

Видео: 680x566@728x566 (1,284:1), 25 fps, H264 ~ 1918 kbps avg, 0.199 bit/pixel
Аудио: 48 kHz, Dolby AC3 2.0, 224 kbps

Раздача от:
Общее
Полное имя : Kljuchi ot neba.1964.DVDRip-AVC_[Youtracker]_by_AVP Studio.mkv
Формат : Matroska
Версия формата : Version 2
Размер файла : 1,09 Гбайт
Продолжительность : 1 ч. 12 м.
Общий поток : 2144 Кбит/сек
Дата кодирования : UTC 2013-01-22 10:19:28
Программа кодирования : mkvmerge v5.0.1 ('Es ist Sommer') built on Nov 6 2011 16:23:40
Библиотека кодирования : libebml v1.2.2 + libmatroska v1.3.0

Видео
Идентификатор : 1
Формат : AVC
Формат/Информация : Advanced Video Codec
Профиль формата : High@L4.1
Параметр CABAC формата : Да
Параметр ReFrames формата : 11 кадров
Идентификатор кодека : V_MPEG4/ISO/AVC
Продолжительность : 1 ч. 12 м.
Битрейт : 1918 Кбит/сек
Ширина : 680 пикселей
Высота : 566 пикселей
Соотношение сторон : 1,284
Соотношение сторон в оригинале : 1,285
Частота кадров : 25,000 кадров/сек
Цветовое пространство : YUV
Субдискретизация насыщенности : 4:2:0
Битовая глубина : 8 бит
Тип развёртки : Прогрессивная
Бит/(Пиксели*Кадры) : 0.199
Размер потока : 980 Мбайт (88%)
Библиотека кодирования : x264 core 119 r2106 07efeb4
Настройки программы : cabac=1 / ref=11 / deblock=1:-2:-1 / analyse=0x3:0x113 / me=umh / subme=9 / psy=1 / psy_rd=1.00:0.20 / mixed_ref=1 / me_range=32 / chroma_me=1 / trellis=1 / 8x8dct=1 / cqm=0 / deadzone=21,11 / fast_pskip=0 / chroma_qp_offset=-3 / threads=3 / sliced_threads=0 / nr=0 / decimate=0 / interlaced=0 / bluray_compat=0 / constrained_intra=0 / bframes=8 / b_pyramid=2 / b_adapt=2 / b_bias=0 / direct=3 / weightb=1 / open_gop=0 / weightp=2 / keyint=250 / keyint_min=25 / scenecut=40 / intra_refresh=0 / rc_lookahead=60 / rc=2pass / mbtree=1 / bitrate=1918 / ratetol=1.0 / qcomp=0.60 / qpmin=0 / qpmax=69 / qpstep=4 / cplxblur=20.0 / qblur=0.5 / ip_ratio=1.40 / aq=1:1.00
Default : Да
Forced : Нет

Аудио
Идентификатор : 2
Формат : AC-3
Формат/Информация : Audio Coding 3
Расширение режима : CM (complete main)
Идентификатор кодека : A_AC3
Продолжительность : 1 ч. 12 м.
Вид битрейта : Постоянный
Битрейт : 224 Кбит/сек
Каналы : 2 канала
Расположение каналов : Front: L R
Частота : 48,0 КГц
Битовая глубина : 16 бит
Метод сжатия : С потерями
Размер потока : 117 Мбайт (10%)
Default : Да
Forced : Нет







   Похожие торренты   Торрент   Размер 
В этой теме нет новых непрочитанных сообщений. Ключи от неба (1964) DVDRip от Youtracker

11 | 11

744.9 МБ

В этой теме нет новых непрочитанных сообщений. Ключи от неба (1964) DVDRip-AVC

333 | 69

1.49 ГБ

В этой теме нет новых непрочитанных сообщений. Ключи от неба (1964) DVDRip

18 | 5

1.13 ГБ

В этой теме нет новых непрочитанных сообщений. Пятеро с неба (1969) DVDRip от Youtracker

7 | 8

744.41 МБ

В этой теме нет новых непрочитанных сообщений. Пятеро с неба (1969) DVDRip-AVC от Youtracker

14 | 9

744.32 МБ

В этой теме нет новых непрочитанных сообщений. Жаворонок (1964) DVDRip от Youtracker

20 | 7

1.46 ГБ

В этой теме нет новых непрочитанных сообщений. Гамлет (1964) DVDRip-AVC от Youtracker

174 | 4

2.18 ГБ




Вы не можете начинать темы
Вы не можете отвечать на сообщения
Вы не можете редактировать свои сообщения
Вы не можете удалять свои сообщения
Вы не можете добавлять вложения

Перейти:  
Для Мосгорсуда, Роскомнадзора и рекламодателей: mosgorsud-torrent[собачка]yandex.ru
 Вход
ppkBB3cker v.2 © 2008-2014 @ PPK
[ Time : 0.021s | 14 Queries | GZIP : On ]

Торрент трекер RUTOR.IN, Не можете зайти на rutor.org? Какой новый адрес рутор? Какое зеркало рутор? Не работает rutor.org и зеркала? Тогда наш торрент специально для вас. Rutor.in неофициальное зеркало rutor. В случае если у Вас заблокирован rutor или вдруг Вы не можете на него зайти, то Вы без труда сможете скачать бесплатно и без рекламы последние новинки кино, игр, сериалов и прочего у нас, на Rutor.in. Не нужно использовать прокси, чтобы зайти на рутор, достаточно воспользоваться нашим ресурсом. Все новые фильмы, игры, сериалы, книги и музыка за 2013 и 2014 годы через торрент бесплатно. Скачивайте фильмы в хорошем качестве, игры для пк, xbox, playstation без регистрации. У нас вы найдете новые Зарубежные сериалы и Русские сериалы 2013, 2014, 2015 годов. Оставайтесь с нами, качайте любимые фильмы, игры, сериалы, книги и музыку.