img image001 image001 image001 image001 image001 image001 image001 image001 image001 image001 image001 image001 image001 image001 image001

Planets Sun Sun Sun
Статистика раздачи
Автор: Снежана | Размер: 744.76 МБ | Добавлен: 24 июл 2013
Раздают: 5    Качают: 26
Скачать торрент
Скачать торрент
Описание торрента

СообщениеДобавлено: 24 июл 2013 

#77
Страна: СССР
Производство: Мосфильм
Жанр: комедия
Год выпуска: 1964
Продолжительность: 01:09:51

Перевод: не требуется
Оригинальная аудиодорожка: русский
Cубтитры: нет

Режиссер: Элем Климов

В ролях: Евгений Евстигнеев, Арина Алейникова, Илья Рутберг, Лидия Смирнова, Алексей Смирнов, Витя Косых, Юра Бондаренко, Лида Волкова, Боря Демб, Серёжа Кокорев, Игорь Крюков, Саша Машовец, Таня Прохорова, Люда Смеян, Слава Царёв, Татьяна Барышева, Екатерина Мазурова, Виктор Уральский, Нина Шацкая, Володя Бурдуков, Саша Живейнов, Алик Минкович, Серёжа Шаппу, Саша Байков, Володя Широков, Раднэр Муратов, Виктор Маркин, Дая Смирнова...

Описание:
Пионер Костя Иночкин, будучи в пионерском лагере, переплыл реку и оказался на запретной для посещений территории, за что и был изгнан его начальником товарищем Дыниным. Не желая доводить бабушку до инфаркта своим досрочным прибытием, мальчик тайно возвращается в лагерь, где пионеры так же тайно содержат его и предпринимают все меры, чтобы не состоялся родительский день. Ведь именно в этот день Костина бабушка заявится в лагерь…





Исходник: HDTVRip 1080i
Тип релиза: HDTVRip
Контейнер: AVI

Видео: 704x528 (4:3), 25 fps, XviD ~ 1353 kbps avg, 0.146 bit/pixel
Аудио: 48 kHz, Dolby MP3 2.0, 128 kbps

Раздача от:
Общее
Полное имя : Dobro.pozhalovat',ili.Postoronnim.vhodvospreshhen.1964.HDTVRip_[Youtracker]_by_AVP Studio.avi
Формат : AVI
Формат/Информация : Audio Video Interleave
Размер файла : 745 Мбайт
Продолжительность : 1 ч. 9 м.
Общий поток : 1490 Кбит/сек
Программа кодирования : VirtualDubMod 1.5.10.3 | www.virtualdub-fr.org || (build 2550/release)
Библиотека кодирования : VirtualDubMod build 2550/release

Видео
Идентификатор : 0
Формат : MPEG-4 Visual
Профиль формата : Advanced Simple@L5
Параметр BVOP формата : 1
Параметр QPel формата : Нет
Параметр GMC формата : Без точки перехода
Параметр матрицы формата : Выборочная
Идентификатор кодека : XVID
Идентификатор кодека/Подсказка : XviD
Продолжительность : 1 ч. 9 м.
Битрейт : 1353 Кбит/сек
Ширина : 704 пикселя
Высота : 528 пикселей
Соотношение сторон : 4:3
Частота кадров : 25,000 кадров/сек
Цветовое пространство : YUV
Субдискретизация насыщенности : 4:2:0
Битовая глубина : 8 бит
Тип развёртки : Прогрессивная
Метод сжатия : С потерями
Бит/(Пиксели*Кадры) : 0.146
Размер потока : 676 Мбайт (91%)
Библиотека кодирования : XviD 65

Аудио
Идентификатор : 1
Формат : MPEG Audio
Версия формата : Version 1
Профиль формата : Layer 3
Идентификатор кодека : 55
Идентификатор кодека/Подсказка : MP3
Продолжительность : 1 ч. 9 м.
Вид битрейта : Постоянный
Битрейт : 128 Кбит/сек
Каналы : 2 канала
Частота : 48,0 КГц
Метод сжатия : С потерями
Размер потока : 64,0 Мбайт (9%)
Выравнивание : Соединение по промежуткам
Продолжительность промежутка : 40 мс. (1,00 видеокадр)
Время предзагрузки промежутка : 504 мс.
Библиотека кодирования : L3.99r
Настройки программы : -m s -V 4 -q 2 -lowpass 17 -b 128





   Похожие торренты   Торрент   Размер 
В этой теме нет новых непрочитанных сообщений. Добро пожаловать, или Посторонним вход воспрещен (1964) HDTVRip-AVC от Youtracker

3 | 6

1.46 ГБ

В этой теме нет новых непрочитанных сообщений. Добро пожаловать, или Посторонним вход воспрещен (1964) DVDRip-AVC

1350 | 45

1.09 ГБ

В этой теме нет новых непрочитанных сообщений. Добро пожаловать, или Посторонним вход воспрещен (1964) DVDRip

62 | 5

1.23 ГБ

В этой теме нет новых непрочитанных сообщений. Добро пожаловать, или Посторонним вход воспрещен (1964) DVDRip

222 | 3

799.98 МБ

В этой теме нет новых непрочитанных сообщений. Добро пожаловать, или Посторонним вход воспрещен (1964) BDRip от HQCLUB

34 | 5

1.09 ГБ

В этой теме нет новых непрочитанных сообщений. Добро пожаловать, или Посторонним вход воспрещен (1964) BDRip от HQ-ViDEO

766 | 75

1.45 ГБ

В этой теме нет новых непрочитанных сообщений. Добро пожаловать, или Посторонним вход воспрещен (1964) BDRip-AVC от MediaClub

220 | 10

2.02 ГБ




Вы не можете начинать темы
Вы не можете отвечать на сообщения
Вы не можете редактировать свои сообщения
Вы не можете удалять свои сообщения
Вы не можете добавлять вложения

Перейти:  
Для Мосгорсуда, Роскомнадзора и рекламодателей: mosgorsud-torrent[собачка]yandex.ru
 Вход
ppkBB3cker v.2 © 2008-2014 @ PPK
[ Time : 0.049s | 16 Queries | GZIP : Off ]

Торрент трекер RUTOR.IN, Не можете зайти на rutor.org? Какой новый адрес рутор? Какое зеркало рутор? Не работает rutor.org и зеркала? Тогда наш торрент специально для вас. Rutor.in неофициальное зеркало rutor. В случае если у Вас заблокирован rutor или вдруг Вы не можете на него зайти, то Вы без труда сможете скачать бесплатно и без рекламы последние новинки кино, игр, сериалов и прочего у нас, на Rutor.in. Не нужно использовать прокси, чтобы зайти на рутор, достаточно воспользоваться нашим ресурсом. Все новые фильмы, игры, сериалы, книги и музыка за 2013 и 2014 годы через торрент бесплатно. Скачивайте фильмы в хорошем качестве, игры для пк, xbox, playstation без регистрации. У нас вы найдете новые Зарубежные сериалы и Русские сериалы 2013, 2014, 2015 годов. Оставайтесь с нами, качайте любимые фильмы, игры, сериалы, книги и музыку.