img image001 image001 image001 image001 image001 image001 image001 image001 image001 image001 image001 image001 image001 image001 image001

Planets Sun Sun Sun
Статистика раздачи
Автор: Снежана | Размер: 745.58 МБ | Добавлен: 24 июл 2013
Раздают: 2    Качают: 3
Скачать торрент
Скачать торрент
Описание торрента

СообщениеДобавлено: 24 июл 2013 

#77
Страна: Югославия, СССР
Производство: Киностудия им. А.Довженко, Ловченфильм
Жанр: военный
Год выпуска: 1965
Продолжительность: 01:21:56

Перевод: не требуется
Оригинальная аудиодорожка: русский
Cубтитры: нет

Режиссер: Юрий Лысенко, Здравко Велимирович / Zdravko Velimirovic

В ролях: Ольга Лысенко, Бранко Плеша, Никола Попович, Миха Балох, Бора Бегович, Ескендыр Умурзаков, Олег Анофриев, Хусейн Чокич, Константин Степанков, Леонид Тарабаринов, Василий Фушич, Елена Лицканович, Г. Маркович...

Описание:
1944 год. Ликует Белград, освобожденный от фашистских захватчиков. Но не знают люди, какая опасность их ожидает. Отступая, гитлеровцы решили взорвать город. На поверхности саперы прощупывают каждый уголок и делают надпись: «Проверено — мин нет». А заминирована глубоко под землей городская канализация. Группе советских и югославских бойцов удается предотвратить взрыв…





Исходник: DVD5 R5
Тип релиза: DVDRip
Контейнер: AVI

Видео: 656x496 (4:3), 25 fps, XviD ~ 1135 kbps avg, 0.139 bit/pixel
Аудио: 48 kHz, Dolby MP3 2.0, 128 kbps

Раздача от:
Общее
Полное имя : Provereno–min.net.1965.DVDRip-745_[Youtracker]_by_AVP Studio.avi
Формат : AVI
Формат/Информация : Audio Video Interleave
Размер файла : 746 Мбайт
Продолжительность : 1 ч. 21 м.
Общий поток : 1272 Кбит/сек
Программа кодирования : VirtualDubMod 1.5.10.3 | www.virtualdub-fr.org || (build 2550/release)
Библиотека кодирования : VirtualDubMod build 2550/release

Видео
Идентификатор : 0
Формат : MPEG-4 Visual
Профиль формата : Advanced Simple@L5
Параметр BVOP формата : 1
Параметр QPel формата : Нет
Параметр GMC формата : Без точки перехода
Параметр матрицы формата : Выборочная
Идентификатор кодека : XVID
Идентификатор кодека/Подсказка : XviD
Продолжительность : 1 ч. 21 м.
Битрейт : 1135 Кбит/сек
Ширина : 656 пикселей
Высота : 496 пикселей
Соотношение сторон : 4:3
Частота кадров : 25,000 кадров/сек
Цветовое пространство : YUV
Субдискретизация насыщенности : 4:2:0
Битовая глубина : 8 бит
Тип развёртки : Прогрессивная
Метод сжатия : С потерями
Бит/(Пиксели*Кадры) : 0.139
Размер потока : 665 Мбайт (89%)
Библиотека кодирования : XviD 65

Аудио
Идентификатор : 1
Формат : MPEG Audio
Версия формата : Version 1
Профиль формата : Layer 3
Идентификатор кодека : 55
Идентификатор кодека/Подсказка : MP3
Продолжительность : 1 ч. 21 м.
Вид битрейта : Постоянный
Битрейт : 128 Кбит/сек
Каналы : 2 канала
Частота : 48,0 КГц
Метод сжатия : С потерями
Размер потока : 75,0 Мбайт (10%)
Выравнивание : Соединение по промежуткам
Продолжительность промежутка : 40 мс. (1,00 видеокадр)
Время предзагрузки промежутка : 504 мс.
Библиотека кодирования : L3.99r
Настройки программы : -m s -V 4 -q 2 -lowpass 17 -b 128







   Похожие торренты   Торрент   Размер 
В этой теме нет новых непрочитанных сообщений. Проверено - мин нет (1965) DVDRip-AVC от Youtracker

3 | 2

1.46 ГБ

В этой теме нет новых непрочитанных сообщений. Проверено - мин нет (1965) DVDRip от Youtracker

14 | 4

1.46 ГБ

В этой теме нет новых непрочитанных сообщений. Пакет (1965) DVDRip-AVC от Youtracker

8 | 6

743.87 МБ

В этой теме нет новых непрочитанных сообщений. Пакет (1965) DVDRip от Youtracker

20 | 4

745.21 МБ

В этой теме нет новых непрочитанных сообщений. Город мастеров (1965) DVDRip от Youtracker

177 | 11

1.46 ГБ

В этой теме нет новых непрочитанных сообщений. Город мастеров (1965) DVDRip от Youtracker

14 | 8

744.72 МБ

В этой теме нет новых непрочитанных сообщений. Гиперболоид инженера Гарина (1965) DVDRip от Youtracker

19 | 7

744.9 МБ




Вы не можете начинать темы
Вы не можете отвечать на сообщения
Вы не можете редактировать свои сообщения
Вы не можете удалять свои сообщения
Вы не можете добавлять вложения

Перейти:  
Для Мосгорсуда, Роскомнадзора и рекламодателей: mosgorsud-torrent[собачка]yandex.ru
 Вход
ppkBB3cker v.2 © 2008-2014 @ PPK
[ Time : 0.033s | 15 Queries | GZIP : Off ]

Торрент трекер RUTOR.IN, Не можете зайти на rutor.org? Какой новый адрес рутор? Какое зеркало рутор? Не работает rutor.org и зеркала? Тогда наш торрент специально для вас. Rutor.in неофициальное зеркало rutor. В случае если у Вас заблокирован rutor или вдруг Вы не можете на него зайти, то Вы без труда сможете скачать бесплатно и без рекламы последние новинки кино, игр, сериалов и прочего у нас, на Rutor.in. Не нужно использовать прокси, чтобы зайти на рутор, достаточно воспользоваться нашим ресурсом. Все новые фильмы, игры, сериалы, книги и музыка за 2013 и 2014 годы через торрент бесплатно. Скачивайте фильмы в хорошем качестве, игры для пк, xbox, playstation без регистрации. У нас вы найдете новые Зарубежные сериалы и Русские сериалы 2013, 2014, 2015 годов. Оставайтесь с нами, качайте любимые фильмы, игры, сериалы, книги и музыку.
cron