img image001 image001 image001 image001 image001 image001 image001 image001 image001 image001 image001 image001 image001 image001 image001

Planets Sun Sun Sun
Статистика раздачи
Автор: Снежана | Размер: 1.46 ГБ | Добавлен: 24 июл 2013
Раздают: 4    Качают: 1
Скачать торрент
Скачать торрент
Описание торрента

СообщениеДобавлено: 24 июл 2013 

#77
Страна: СССР
Производство: Ленфильм
Жанр: криминал, детектив
Год выпуска: 1966
Продолжительность: 01:32:54

Перевод: не требуется
Оригинальная аудиодорожка: русский
Cубтитры: нет

Режиссер: Герберт Раппапорт

В ролях: Александр Збруев - Алёшин, Земфира Цахилова - Тоня, Игорь Горбачёв - Николаев, Петр Горин - Шондыш, Алексей Кожевников - Андреев, Никита Подгорный - Лебедянский, Валентина Сперантова - мать Лебедянского, Станислав Чекан - Сабодаж, Лариса Барабанова - Кнопка, Владимир Кенигсон - Рубцов, Галина Никулина - Юлия, Людмила Чурсина - Инка-эстонка, Александр Январев - Сиротин, Бруно Фрейндлих - Блинов, Лев Лемке - Коллега Лебедянского...

Описание: Ответственного комсомольца Алешина райком направляет работать в ОБХСС. Однако молодой человек абсолютно не чувствует в себе призвания к этому делу и подает рапорт об увольнении. Начальник готов удовлетворить его просьбу, но только после того, как Алешин выполнит одно очень важное задание. Дело в следующем: у двух преступников, занимающихся валютными махинациями, обнаружены билеты на один сеанс в кинотеатр «Ударник». Казалось бы ничего криминального, однако эти два использованных билета оказываются на одно и то же место, но на разные дни. Оперативникам это кажется странным, и начальство поручает Алешину все выяснить. Молодой человек начинает раскручивать это дело. Самый обыкновенный билет на киносеанс неожиданно оказывается паролем преступников. Алешин с помощью этой информации внедряется в банду…





Исходник: DVD5 R5
Тип релиза: DVDRip
Контейнер: AVI

Видео: 720x304 (2,35:1), 25 fps, XviD ~ 2044 kbps avg, 0.373 bit/pixel
Аудио: 48 kHz, Dolby AC3 2.0, 192 kbps

Раздача от:
Общее
Полное имя : Dva.bileta.na.dnevnoy.seans.1966.DVDRip_[Youtracker]_by_AVP Studio.avi
Формат : AVI
Формат/Информация : Audio Video Interleave
Размер файла : 1,46 Гбайт
Продолжительность : 1 ч. 32 м.
Общий поток : 2245 Кбит/сек
Программа кодирования : VirtualDubMod 1.5.10.3 | www.virtualdub-fr.org || (build 2550/release)
Библиотека кодирования : VirtualDubMod build 2550/release

Видео
Идентификатор : 0
Формат : MPEG-4 Visual
Профиль формата : Advanced Simple@L5
Параметр BVOP формата : 1
Параметр QPel формата : Нет
Параметр GMC формата : Без точки перехода
Параметр матрицы формата : Выборочная
Идентификатор кодека : XVID
Идентификатор кодека/Подсказка : XviD
Продолжительность : 1 ч. 32 м.
Битрейт : 2044 Кбит/сек
Ширина : 720 пикселей
Высота : 304 пикселя
Соотношение сторон : 2,35:1
Частота кадров : 25,000 кадров/сек
Цветовое пространство : YUV
Субдискретизация насыщенности : 4:2:0
Битовая глубина : 8 бит
Тип развёртки : Прогрессивная
Метод сжатия : С потерями
Бит/(Пиксели*Кадры) : 0.373
Размер потока : 1,33 Гбайт (91%)
Библиотека кодирования : XviD 65

Аудио
Идентификатор : 1
Формат : AC-3
Формат/Информация : Audio Coding 3
Расширение режима : CM (complete main)
Идентификатор кодека : 2000
Продолжительность : 1 ч. 32 м.
Вид битрейта : Постоянный
Битрейт : 192 Кбит/сек
Каналы : 2 канала
Расположение каналов : Front: L R
Частота : 48,0 КГц
Битовая глубина : 16 бит
Метод сжатия : С потерями
Размер потока : 128 Мбайт (9%)
Выравнивание : Разделение по промежуткам
Продолжительность промежутка : 40 мс. (1,00 видеокадр)
Время предзагрузки промежутка : 500 мс







   Похожие торренты   Торрент   Размер 
В этой теме нет новых непрочитанных сообщений. Два билета на дневной сеанс (1966) DVDRip от Youtracker

0 | 2

745.22 МБ

В этой теме нет новых непрочитанных сообщений. Два билета на дневной сеанс (1966) DVDRip-AVC от New-Team

188 | 32

1.46 ГБ

В этой теме нет новых непрочитанных сообщений. Два билета на дневной сеанс (1967) DVDRip

4 | 2

1.37 ГБ

В этой теме нет новых непрочитанных сообщений. Дневной сеанс / Утренник / Matinee (1993) BDRip от HQCLUB

50 | 8

1.45 ГБ

В этой теме нет новых непрочитанных сообщений. Туннель (1966) DVDRip от Youtracker

6 | 6

742.93 МБ

В этой теме нет новых непрочитанных сообщений. Туннель (1966) DVDRip-AVC от Youtracker

6 | 2

743.51 МБ

В этой теме нет новых непрочитанных сообщений. Три толстяка (1966) DVDRip-AVC от Youtracker

320 | 18

1.45 ГБ




Вы не можете начинать темы
Вы не можете отвечать на сообщения
Вы не можете редактировать свои сообщения
Вы не можете удалять свои сообщения
Вы не можете добавлять вложения

Перейти:  
Для Мосгорсуда, Роскомнадзора и рекламодателей: mosgorsud-torrent[собачка]yandex.ru
cron
 Вход
ppkBB3cker v.2 © 2008-2014 @ PPK
[ Time : 0.038s | 15 Queries | GZIP : Off ]

cron