img image001 image001 image001 image001 image001 image001 image001 image001 image001 image001 image001 image001 image001 image001 image001

Planets Sun Sun Sun
Статистика раздачи
Автор: Снежана | Размер: 3.25 ГБ | Добавлен: 24 июл 2013
Раздают: 10    Качают: 9
Скачать торрент
Скачать торрент
Описание торрента

СообщениеДобавлено: 24 июл 2013 

#77

Информация о фильме
Название: С новым годом, мамы!
Год выхода: 2012
Жанр: Комедия, семейный
Режиссер: Сарик Андреасян, Артем Аксененко, Дмитрий Грачев
В ролях: Елизавета Боярская, Максим Матвеев, Павел Воля, Ирина Розанова, Ален Делон, Екатерина Вилкова, Светлана Иванова, Максим Виторган, Константин Крюков, Гарик Харламов

О фильме:
В новой ленте зрители увидят новые истории и новые приключения новых героев, объединенных одним чувством — любовью к МАМЕ. 5 новелл. Смешные и трогательные, лиричные и комичные — каждая новелла расскажет историю мамы и ребенка, двух самых близких людей на свете. Ведь что бы ни происходило, мама всегда остается тем человеком, который будет любить всегда и несмотря ни на что…

General
Unique ID : 218526464128367988039596338424313552751 (0xA466AA84E9AEA9488132BD86ABDC1F6F)
Complete name : S.novym.godom.mamy.720p.Bluray.Rus.HDCLUB.mkv
Format : Matroska
Format version : Version 2
File size : 3.25 GiB
Duration : 1h 24mn
Overall bit rate : 5 510 Kbps
Movie name : HDCLUB present "S novym godom mamy (2012)"
Encoded date : UTC 2013-01-25 08:45:18
Writing application : mkvmerge v5.8.0 ('No Sleep / Pillow') built on Sep 2 2012 15:37:04
Writing library : libebml v1.2.3 + libmatroska v1.3.0

Video
ID : 1
Format : AVC
Format/Info : Advanced Video Codec
Format profile : High@L4.1
Format settings, CABAC : Yes
Format settings, ReFrames : 12 frames
Codec ID : V_MPEG4/ISO/AVC
Duration : 1h 24mn
Bit rate : 4 000 Kbps
Width : 1 280 pixels
Height : 544 pixels
Display aspect ratio : 2.35:1
Frame rate mode : Constant
Frame rate : 24.000 fps
Color space : YUV
Chroma subsampling : 4:2:0
Bit depth : 8 bits
Scan type : Progressive
Bits/(Pixel*Frame) : 0.239
Stream size : 2.29 GiB (71%)
Title : S.novym.godom.mamy.720p.Bluray.Rus.HDCLUB
Writing library : x264 core 129 r2245 bc13772
Encoding settings : cabac=1 / ref=12 / deblock=1:-3:-3 / analyse=0x3:0x133 / me=esa / subme=11 / psy=1 / psy_rd=1.00:0.00 / mixed_ref=1 / me_range=32 / chroma_me=1 / trellis=2 / 8x8dct=1 / cqm=0 / deadzone=21,11 / fast_pskip=0 / chroma_qp_offset=-2 / threads=12 / lookahead_threads=2 / sliced_threads=0 / nr=0 / decimate=1 / interlaced=0 / bluray_compat=0 / constrained_intra=0 / bframes=7 / b_pyramid=2 / b_adapt=2 / b_bias=0 / direct=3 / weightb=1 / open_gop=0 / weightp=2 / keyint=250 / keyint_min=23 / scenecut=40 / intra_refresh=0 / rc_lookahead=60 / rc=2pass / mbtree=0 / bitrate=4000 / ratetol=1.0 / qcomp=0.60 / qpmin=0 / qpmax=69 / qpstep=4 / cplxblur=20.0 / qblur=0.5 / vbv_maxrate=50000 / vbv_bufsize=62500 / nal_hrd=none / ip_ratio=1.40 / pb_ratio=1.30 / aq=1:0.80
Language : Russian
Default : Yes
Forced : No

Audio
ID : 2
Format : DTS
Format/Info : Digital Theater Systems
Mode : 16
Format settings, Endianness : Big
Codec ID : A_DTS
Duration : 1h 24mn
Bit rate mode : Constant
Bit rate : 1 509 Kbps
Channel(s) : 6 channels
Channel positions : Front: L C R, Side: L R, LFE
Sampling rate : 48.0 KHz
Bit depth : 16 bits
Compression mode : Lossy
Stream size : 910 MiB (27%)
Title : DTS 5.1 @ 1536
Language : Russian
Default : Yes
Forced : No

Menu
00:00:00.000 : ru:Chapter 01
00:06:25.958 : ru:Chapter 02
00:10:41.708 : ru:Chapter 03
00:15:20.250 : ru:Chapter 04
00:22:55.375 : ru:Chapter 05
00:31:04.916 : ru:Chapter 06
00:38:52.000 : ru:Chapter 07
00:43:55.791 : ru:Chapter 08
00:48:07.041 : ru:Chapter 09
00:52:13.916 : ru:Chapter 10
00:59:28.875 : ru:Chapter 11
01:03:45.666 : ru:Chapter 12
01:10:33.291 : ru:Chapter 13
01:15:56.833 : ru:Chapter 14
01:20:32.750 : ru:Chapter 15
01:24:15.333 : ru:Chapter 16


Страна: Россия
Студия: Enjoy Movies
Продолжительность: 01:24:20
Перевод: Не требуется [Лицензия]

Файл
Кодек: x264
Качество: BDRip 720p
Видео: 1280x544 at 24.000 fps (True24p), x264@L4.1, 2pass, ~4000 kbps avg
Звук: Russian: 48 kHz/16-bit, DTS, 3/2 (L,C,R,l,r) + LFE ch, ~1509.00 kbps avg



Релиз от:



   Похожие торренты   Торрент   Размер 
В этой теме нет новых непрочитанных сообщений. С новым годом, мамы! (2012) BDRip-AVC

37 | 5

746.42 МБ

В этой теме нет новых непрочитанных сообщений. С новым годом, мамы! (2012) BDRip от HQ-ViDEO

1276 | 26

1.46 ГБ

В этой теме нет новых непрочитанных сообщений. С новым годом, мамы! (2012) BDRip-AVC от ExKinoRay

475 | 32

1.46 ГБ

В этой теме нет новых непрочитанных сообщений. С новым годом, МАМЫ! (2012) BDRip-AVC | iPad

0 | 2

1.09 ГБ

В этой теме нет новых непрочитанных сообщений. С новым годом, мамы! (2012) BDRip от HELLYWOOD

19 | 4

1.45 ГБ

В этой теме нет новых непрочитанных сообщений. С новым годом, мамы! (2012) BDRip 1080p

95 | 12

4.37 ГБ

В этой теме нет новых непрочитанных сообщений. С новым годом, мамы! (2012) BDRip | Лицензия

28 | 7

1.37 ГБ




Вы не можете начинать темы
Вы не можете отвечать на сообщения
Вы не можете редактировать свои сообщения
Вы не можете удалять свои сообщения
Вы не можете добавлять вложения

Перейти:  
Для Мосгорсуда, Роскомнадзора и рекламодателей: mosgorsud-torrent[собачка]yandex.ru
 Вход
ppkBB3cker v.2 © 2008-2014 @ PPK
[ Time : 0.044s | 15 Queries | GZIP : Off ]

cron