img image001 image001 image001 image001 image001 image001 image001 image001 image001 image001 image001 image001 image001 image001 image001

Planets Sun Sun Sun
Статистика раздачи
Автор: Снежана | Размер: 743.88 МБ | Добавлен: 24 июл 2013
Раздают: 11    Качают: 6
Скачать торрент
Скачать торрент
Описание торрента

СообщениеДобавлено: 24 июл 2013 

#77
Страна: СССР
Производство: Ленфильм
Жанр: драма, мелодрама, комедия
Год выпуска: 1955
Продолжительность: 1:25:18

Перевод: не требуется
Оригинальная аудиодорожка: русский
Cубтитры: нет

Режиссер: Ян Фрид

В ролях: Клара Лучко, Алла Ларионова, Вадим Медведев, Михаил Яншин, Георгий Вицин, Василий Меркурьев, Бруно Фрейндлих, Сергей Филиппов, Анна Лисянская, Нина Ургант...

Описание:
В бурю корабль разбился и утонул. Благородные брат и сестра были спасены, но разлучились, думая, что выжил(а) только один (одна). Сестра, переодевшись юношей, нанимается в слуги к герцогу, влюбленному в местную красавицу, и после этого следует целый каскад блистательных недоразумений…





Исходник: DVD5 R5
Тип релиза: DVDRip
Контейнер: AVI

Видео: 656x480 (4:3), 25 fps, XviD ~ 1081 kbps avg, 0.137 bit/pixel
Аудио: 48 kHz, Dolby MP3 2.0, 128 kbps

Раздача от:
Общее
Полное имя : Dvenadcataja.noch'.1955.DVDRip_[Youtracker]_by_AVP Studio.avi
Формат : AVI
Формат/Информация : Audio Video Interleave
Размер файла : 744 Мбайт
Продолжительность : 1 ч. 25 м.
Общий поток : 1219 Кбит/сек
Программа кодирования : VirtualDubMod 1.5.10.3 | www.virtualdub-fr.org || (build 2550/release)
Библиотека кодирования : VirtualDubMod build 2550/release

Видео
Идентификатор : 0
Формат : MPEG-4 Visual
Профиль формата : Advanced Simple@L5
Параметр BVOP формата : 1
Параметр QPel формата : Нет
Параметр GMC формата : Без точки перехода
Параметр матрицы формата : Выборочная
Идентификатор кодека : XVID
Идентификатор кодека/Подсказка : XviD
Продолжительность : 1 ч. 25 м.
Битрейт : 1081 Кбит/сек
Ширина : 656 пикселей
Высота : 480 пикселей
Соотношение сторон : 4:3
Частота кадров : 25,000 кадров/сек
Цветовое пространство : YUV
Субдискретизация насыщенности : 4:2:0
Битовая глубина : 8 бит
Тип развёртки : Прогрессивная
Метод сжатия : С потерями
Бит/(Пиксели*Кадры) : 0.137
Размер потока : 660 Мбайт (89%)
Библиотека кодирования : XviD 65

Аудио
Идентификатор : 1
Формат : MPEG Audio
Версия формата : Version 1
Профиль формата : Layer 3
Идентификатор кодека : 55
Идентификатор кодека/Подсказка : MP3
Продолжительность : 1 ч. 25 м.
Вид битрейта : Постоянный
Битрейт : 128 Кбит/сек
Каналы : 2 канала
Частота : 48,0 КГц
Метод сжатия : С потерями
Размер потока : 78,1 Мбайт (11%)
Выравнивание : Соединение по промежуткам
Продолжительность промежутка : 40 мс. (1,00 видеокадр)
Время предзагрузки промежутка : 504 мс.
Библиотека кодирования : L3.99r
Настройки программы : -m s -V 4 -q 2 -lowpass 17 -b 128



#77
Чтобы помнили...

Ян Борисович Фрид (настоящее имя Яков Борухович Фридланд, 31 мая 1908 — 19 декабря 2003) — советский российский режиссёр и сценарист.
В 1953 поставил фильм-спектакль «Любовь Яровая», а в 1955 экранизировал «Двенадцатую ночь» У. Шекспира с блистательным актёрским составом (Михаил Яншин, Клара Лучко, Алла Ларионова, Василий Меркурьев, Георгий Вицин, Бруно Фрейндлих).

В дальнейшем режиссёр снимал картины различных жанров, но с начала 1970-х годов специализировался в жанре музыкального кино, поставив фильм «Прощание с Петербургом» о пребывании в России Иоганна Штрауса-сына.

Широкое признание ожидало Яна Фрида после выхода на телеэкраны «Собаки на сене» (1977), снятой им по пьесе Лопе де Веги, с Михаилом Боярским и Маргаритой Тереховой в главных ролях.

Большой успех получили фильмы Яна Фрида «Летучая мышь» (по оперетте И. Штрауса, 1979) с Юрием и Виталием Соломиными, Людмилой Максаковой; «Сильва» (по оперетте И. Кальмана, 1980) с Иваром Калниньшом; «Благочестивая Марта» (по Тирсо де Молина, 1980) с Маргаритой Тереховой и Эммануилом Виторганом; «Дон Сезар де Базан» с Анной Самохиной, Михаилом Боярским и Юрием Богатырёвым. Кроме упомянутых режиссёр поставил фильмы «Дорога правды» (1956), «Чужая беда» (1960), «Зеленая карета» (1967), «Вольный ветер» (1983), «Тартюф» (1992).

В 1932—1962 Фрид преподавал в Ленинградском государственном институте театра, музыки и кино; с 1970 был профессором Ленинградской консерватории.

В 1994 году Ян Фрид вместе с супругой Викторией Горшениной (много лет проработавшей в театре Аркадия Райкина) переехал на постоянное жительство в Штутгарт (Германия). Умер 19 декабря 2003 года в Штутгарте.





   Похожие торренты   Торрент   Размер 
В этой теме нет новых непрочитанных сообщений. Двенадцатая ночь (1955) DVDRip-AVC от Youtracker

64 | 30

1.46 ГБ

В этой теме нет новых непрочитанных сообщений. Двенадцатая ночь (1955) DVDRip от Youtracker

50 | 6

1.46 ГБ

В этой теме нет новых непрочитанных сообщений. Двенадцатая ночь (1955) DVD5 R5 от Youtracker

9 | 8

4.23 ГБ

В этой теме нет новых непрочитанных сообщений. Двенадцатая ночь (1978) DVDRip-AVC от Youtracker

35 | 7

2.19 ГБ

В этой теме нет новых непрочитанных сообщений. Двенадцатая ночь (1978) DVDRip от Youtracker

11 | 5

1.46 ГБ

В этой теме нет новых непрочитанных сообщений. Двенадцатая ночь (1978) DVDRip-AVC от старпёра

1 | 5

1.82 ГБ

В этой теме нет новых непрочитанных сообщений. Двенадцатая ночь или что угодно / Twelfth Night or What You Will (1996) DVDRip | P

45 | 7

2.06 ГБ




Вы не можете начинать темы
Вы не можете отвечать на сообщения
Вы не можете редактировать свои сообщения
Вы не можете удалять свои сообщения
Вы не можете добавлять вложения

Перейти:  
Для Мосгорсуда, Роскомнадзора и рекламодателей: mosgorsud-torrent[собачка]yandex.ru
 Вход
ppkBB3cker v.2 © 2008-2014 @ PPK
[ Time : 0.091s | 15 Queries | GZIP : Off ]

Торрент трекер RUTOR.IN, Не можете зайти на rutor.org? Какой новый адрес рутор? Какое зеркало рутор? Не работает rutor.org и зеркала? Тогда наш торрент специально для вас. Rutor.in неофициальное зеркало rutor. В случае если у Вас заблокирован rutor или вдруг Вы не можете на него зайти, то Вы без труда сможете скачать бесплатно и без рекламы последние новинки кино, игр, сериалов и прочего у нас, на Rutor.in. Не нужно использовать прокси, чтобы зайти на рутор, достаточно воспользоваться нашим ресурсом. Все новые фильмы, игры, сериалы, книги и музыка за 2013 и 2014 годы через торрент бесплатно. Скачивайте фильмы в хорошем качестве, игры для пк, xbox, playstation без регистрации. У нас вы найдете новые Зарубежные сериалы и Русские сериалы 2013, 2014, 2015 годов. Оставайтесь с нами, качайте любимые фильмы, игры, сериалы, книги и музыку.