img image001 image001 image001 image001 image001 image001 image001 image001 image001 image001 image001 image001 image001 image001 image001

Planets Sun Sun Sun
Статистика раздачи
Автор: Снежана | Размер: 1.37 ГБ | Добавлен: 24 июл 2013
Раздают: 91    Качают: 3
Скачать торрент
Скачать торрент
Описание торрента

СообщениеДобавлено: 24 июл 2013 

#77

Информация о фильме
Оригинальное название: Счастливые дни
Год выхода: 1991
Режиссер: Алексей Балабанов
Жанр: драма
В ролях: Виктор Сухоруков, Анжелика Неволина, Евгений Меркурьев, Георгий Тейх, Николай Лавров, Аркадий Шароградский и другие

О фильме:
Пустынный, будто вымерший Петербург вне времени и вне эпох — провалы окон облупившихся старинных домов, провалы дверей трамваев без пассажиров, грохочущих неизвестно куда по совершенно безлюдным улицам. По этим улицам, мимо этих домов и этих трамваев, одиноко бредет ОН — человек без имени, без памяти, без прошлого и без друзей.

Те редкие люди, с кем пересекся его путь, называют его по-разному: одни — Сергеем Сергеевичем, другие — Петром, а хрупкая белокурая девушка, подсевшая к нему однажды на заснеженном кладбище, называет его Борей и говорит, что ждет от него ребенка. Все чего-то хотят от него, он же хочет лишь одного — найти себе комнату, где просто смог бы жить. Но и эта такая простая цель оказывается такой недостижимой...



Страна: СССР
Студия: SPiEF
Продолжительность: 01:21:38
Перевод: Не требуется

Файл
Качество видео: SATRip
Формат видео: Avi
Видео: 688x528 (4:3), 25 fps, XviD build 65 ~2200 kbps, 0.242 bit/pixel
Аудио: 48 kHz, AC3 Dolby Digital, 2/0 (L,R) ch, 192 kbps

General
Format : AVI
Format/Info : Audio Video Interleave
File size : 1.37 GiB
Duration : 1h 21mn
Overall bit rate : 2 402 Kbps
Writing application : VirtualDubMod 1.5.10.3 | www.virtualdub-fr.org || (build 2550/release)
Writing library : VirtualDubMod build 2550/release

Video
ID : 0
Format : MPEG-4 Visual
Format profile : Advanced Simple@L5
Format settings, BVOP : 1
Format settings, QPel : No
Format settings, GMC : No warppoints
Format settings, Matrix : Custom
Codec ID : XVID
Codec ID/Hint : XviD
Duration : 1h 21mn
Bit rate : 2 200 Kbps
Width : 688 pixels
Height : 528 pixels
Display aspect ratio : 4:3
Frame rate : 25.000 fps
Color space : YUV
Chroma subsampling : 4:2:0
Bit depth : 8 bits
Scan type : Progressive
Compression mode : Lossy
Bits/(Pixel*Frame) : 0.242
Stream size : 1.25 GiB (92%)
Writing library : XviD 65

Audio
ID : 1
Format : AC-3
Format/Info : Audio Coding 3
Mode extension : CM (complete main)
Format settings, Endianness : Big
Codec ID : 2000
Duration : 1h 21mn
Bit rate mode : Constant
Bit rate : 192 Kbps
Channel(s) : 2 channels
Channel positions : Front: L R
Sampling rate : 48.0 KHz
Bit depth : 16 bits
Compression mode : Lossy
Stream size : 112 MiB (8%)
Alignment : Split accross interleaves
Interleave, duration : 40 ms (1.00 video frame)
Interleave, preload duration : 500 ms





   Похожие торренты   Торрент   Размер 
В этой теме нет новых непрочитанных сообщений. Счастливые дни (1991) SATRip

10 | 2

699.34 МБ

В этой теме нет новых непрочитанных сообщений. Сверкайте, сверкайте счастливые звезды / Непревзойденный боец / Мои счастливые звезды 2 / Twinkle, Twi (1985) DVDRip от KINOREAKTOR (Sheikn)

16 | 3

2.1 ГБ

В этой теме нет новых непрочитанных сообщений. Крутые 90-е. Счастливые песни смутного времени (2009) SATRip

14 | 5

1.07 ГБ

В этой теме нет новых непрочитанных сообщений. Счастливые люди: Год в тайге / Happy People: A Year in the Taiga (2010) SATRip

736 | 21

1.44 ГБ

В этой теме нет новых непрочитанных сообщений. Счастливые люди (2008) DVDRip

611 | 196

2.5 ГБ

В этой теме нет новых непрочитанных сообщений. Счастливые родители №2 (февраль) (2011) PDF

0 | 2

34.67 МБ

В этой теме нет новых непрочитанных сообщений. Счастливые люди (2008) DVD5

18 | 10

12.69 ГБ




Вы не можете начинать темы
Вы не можете отвечать на сообщения
Вы не можете редактировать свои сообщения
Вы не можете удалять свои сообщения
Вы не можете добавлять вложения

Перейти:  
Для Мосгорсуда, Роскомнадзора и рекламодателей: mosgorsud-torrent[собачка]yandex.ru
 Вход
ppkBB3cker v.2 © 2008-2014 @ PPK
[ Time : 0.038s | 17 Queries | GZIP : Off ]

cron