img image001 image001 image001 image001 image001 image001 image001 image001 image001 image001 image001 image001 image001 image001 image001

Planets Sun Sun Sun
Статистика раздачи
Автор: Снежана | Размер: 1.46 ГБ | Добавлен: 24 июл 2013
Раздают: 145    Качают: 8
Скачать торрент
Скачать торрент
Описание торрента

СообщениеДобавлено: 24 июл 2013 

#77
Страна: СССР
Производство: Студия Довженко
Жанр: драма
Год выпуска: 1966
Продолжительность: 1:27:00

Перевод: не требуется
Оригинальная аудиодорожка: русский
Cубтитры: нет

Режиссер: Антон Тимонишин

В ролях: Юрий Волков, Александр Белявский, Ирина Мирошниченко, Алексей Смирнов, Владимир Емельянов, Степан Крылов, П. Бантыш, Елена Добронравова, Сергей Голованов, О. Гринаковский...

Описание: Один из оккупированных немцами, строжайше охраняемых портов постоянно сотрясают взрывы: взлетают на воздух военные корабли, танкеры с нефтью, транспортеры с продовольствием.
Чего только не предпринимает опытный военачальник Рейнкардт для ликвидации партизанского движения: облавы и аресты, вызван отряд из Италии, закаленный в подводной войне с Англией, но ничего не помогает. В ходе расследования в связи с партизанами начинают подозревать Галину Ортынскую, переводчицу из комендатуры порта, аккуратную и исполнительную служащую…





Исходник: DVD5 R5
Тип релиза: DVDRip
Контейнер: AVI

Видео: 688x368 (1,870:1), 25 fps, XviD ~ 1940 kbps avg, 0.306 bit/pixel
Аудио: 48 kHz, Dolby AC3 5.1, 448 kbps

Раздача от:
Общее
Полное имя : Ih.znali.tol'ko.v.lico.1966.DVDRip_[Youtracker]_by_AVP Studio.avi
Формат : AVI
Формат/Информация : Audio Video Interleave
Размер файла : 1,46 Гбайт
Продолжительность : 1 ч. 27 м.
Общий поток : 2397 Кбит/сек
Программа кодирования : VirtualDubMod 1.5.10.3 | www.virtualdub-fr.org || (build 2550/release)
Библиотека кодирования : VirtualDubMod build 2550/release

Видео
Идентификатор : 0
Формат : MPEG-4 Visual
Профиль формата : Advanced Simple@L5
Параметр BVOP формата : 1
Параметр QPel формата : Нет
Параметр GMC формата : Без точки перехода
Параметр матрицы формата : Выборочная
Идентификатор кодека : XVID
Идентификатор кодека/Подсказка : XviD
Продолжительность : 1 ч. 27 м.
Битрейт : 1940 Кбит/сек
Ширина : 688 пикселей
Высота : 368 пикселей
Соотношение сторон : 1,870
Частота кадров : 25,000 кадров/сек
Цветовое пространство : YUV
Субдискретизация насыщенности : 4:2:0
Битовая глубина : 8 бит
Тип развёртки : Прогрессивная
Метод сжатия : С потерями
Бит/(Пиксели*Кадры) : 0.306
Размер потока : 1,18 Гбайт (81%)
Библиотека кодирования : XviD 65

Аудио
Идентификатор : 1
Формат : AC-3
Формат/Информация : Audio Coding 3
Расширение режима : CM (complete main)
Идентификатор кодека : 2000
Продолжительность : 1 ч. 27 м.
Вид битрейта : Постоянный
Битрейт : 448 Кбит/сек
Каналы : 6 каналов
Расположение каналов : Front: L C R, Side: L R, LFE
Частота : 48,0 КГц
Битовая глубина : 16 бит
Метод сжатия : С потерями
Размер потока : 279 Мбайт (19%)
Выравнивание : Разделение по промежуткам
Продолжительность промежутка : 40 мс. (1,00 видеокадр)
Время предзагрузки промежутка : 500 мс





   Похожие торренты   Торрент   Размер 
В этой теме нет новых непрочитанных сообщений. Их знали только в лицо (1966) DVDRip-AVC от Youtracker

8 | 7

1.46 ГБ

В этой теме нет новых непрочитанных сообщений. Их знали только в лицо (1966) DVDRip от Youtracker

6 | 4

745.26 МБ

В этой теме нет новых непрочитанных сообщений. Лицо / Twarz / The Face (1966) DVDRip от Hi-Films

0 | 2

48.02 МБ

В этой теме нет новых непрочитанных сообщений. Туннель (1966) DVDRip-AVC от Youtracker

6 | 2

743.51 МБ

В этой теме нет новых непрочитанных сообщений. Туннель (1966) DVDRip от Youtracker

6 | 6

742.93 МБ

В этой теме нет новых непрочитанных сообщений. Три толстяка (1966) DVDRip от Youtracker

16 | 11

1.45 ГБ

В этой теме нет новых непрочитанных сообщений. Три толстяка (1966) DVDRip от Youtracker

70 | 11

744.2 МБ




Вы не можете начинать темы
Вы не можете отвечать на сообщения
Вы не можете редактировать свои сообщения
Вы не можете удалять свои сообщения
Вы не можете добавлять вложения

Перейти:  
Для Мосгорсуда, Роскомнадзора и рекламодателей: mosgorsud-torrent[собачка]yandex.ru
 Вход
ppkBB3cker v.2 © 2008-2014 @ PPK
[ Time : 0.022s | 14 Queries | GZIP : Off ]

Торрент трекер RUTOR.IN, Не можете зайти на rutor.org? Какой новый адрес рутор? Какое зеркало рутор? Не работает rutor.org и зеркала? Тогда наш торрент специально для вас. Rutor.in неофициальное зеркало rutor. В случае если у Вас заблокирован rutor или вдруг Вы не можете на него зайти, то Вы без труда сможете скачать бесплатно и без рекламы последние новинки кино, игр, сериалов и прочего у нас, на Rutor.in. Не нужно использовать прокси, чтобы зайти на рутор, достаточно воспользоваться нашим ресурсом. Все новые фильмы, игры, сериалы, книги и музыка за 2013 и 2014 годы через торрент бесплатно. Скачивайте фильмы в хорошем качестве, игры для пк, xbox, playstation без регистрации. У нас вы найдете новые Зарубежные сериалы и Русские сериалы 2013, 2014, 2015 годов. Оставайтесь с нами, качайте любимые фильмы, игры, сериалы, книги и музыку.