img image001 image001 image001 image001 image001 image001 image001 image001 image001 image001 image001 image001 image001 image001 image001

Planets Sun Sun Sun
Статистика раздачи
Автор: Снежана | Размер: 1.52 ГБ | Добавлен: 24 июл 2013
Раздают: 96    Качают: 13
Скачать торрент
Скачать торрент
Описание торрента

СообщениеДобавлено: 24 июл 2013 

#77

Название: Не может быть!
Год выпуска: 1975
Жанр: Комедия
Режиссер: Леонид Гайдай
В ролях: Нина Гребешкова, Михаил Пуговкин, Вячеслав Невинный, Михаил Светин, Раднэр Муратов, Лев Поляков, Виктор Уральский, Олег Даль, Светлана Крючкова, Михаил Кокшенов, Евгений Жариков, Наталья Селезнева, Лариса Еремина, Елена Вольская, Леонид Куравлев, Савелий Крамаров, Георгий Вицин, Валентина Теличкина, Людмила Шагалова, Светлана Харитонова, Наталья Крачковская, Сергей Филиппов, Игорь Ясулович, Эве Киви, Готлиб Ронинсон, Нина Крачковская

Описание: Фильм включает три новеллы по рассказам Михаила Зощенко: "Преступление и наказание", "Забавное приключение" и "Свадебное происшествие". События происходят в конце 1920-х - начале 1930-х годов, однако явления, которые высмеивает фильм - тупость, пьянство, стремление к наживе, легкомысленное отношение к жизни - увы, и сегодня существуют благополучно и повсеместно...

Киновидеообъединение "Крупный План". Полная реставрация изображения и звука!
30.01.2013 - 90 лет со дня рождения Леонида Гайдая!




Страна: Союз Советских Социалистических Республик
Продолжительность: ~ 01:32:00



Качество: DVDRip
Формат: AVI
Видео: XviD, 1688 Кбит/с, 704x512
Аудио: AC3, 6 ch, 448 Кбит/с
Аудио: AC3, 1 ch, 224 Кбит/с (Отдельно)

Формат : AVI
Формат/Информация : Audio Video Interleave
Размер файла : 1,37 Гбайт
Продолжительность : 1 ч. 31 м.
Общий поток : 2146 Кбит/сек
Программа кодирования : VirtualDubMod 1.5.10.2 (build 2540/release)
Библиотека кодирования : VirtualDubMod build 2540/release

Видео
Идентификатор : 0
Формат : MPEG-4 Visual
Профиль формата : Advanced Simple@L5
Параметр BVOP формата : 2
Параметр QPel формата : Нет
Параметр GMC формата : Без точки перехода
Параметр матрицы формата : Default (MPEG)
Идентификатор кодека : XVID
Идентификатор кодека/Подсказка : XviD
Продолжительность : 1 ч. 31 м.
Битрейт : 1688 Кбит/сек
Ширина : 704 пикс.
Высота : 512 пикс.
Соотношение сторон : 4:3
Частота кадров : 25,000 кадр/сек
Цветовое пространство : YUV
Подвыборка цветности : 4:2:0
Битовая глубина : 8 бит
Тип развёртки : Прогрессивная
Метод сжатия : С потерями
Бит/(Пиксели*Кадры) : 0.187
Размер потока : 1,08 Гбайт (79%)
Библиотека кодирования : XviD 1.2.1 (UTC 2008-12-04)

Аудио
Идентификатор : 1
Формат : AC-3
Формат/Информация : Audio Coding 3
Расширение режима : CM (complete main)
Идентификатор кодека : 2000
Продолжительность : 1 ч. 31 м.
Вид битрейта : Постоянный
Битрейт : 448 Кбит/сек
Каналы : 6 каналов
Расположение каналов : Front: L C R, Side: L R, LFE
Частота : 48,0 КГц
Битовая глубина : 16 бит
Метод сжатия : С потерями
Размер потока : 294 Мбайт (21%)
Выравнивание : Разделение по промежуткам
Продолжительность промежутка : 40 мс. (1,00 видеокадр)
Время предзагрузки промежутка : 500 ms


Релиз от: Занавес



   Похожие торренты   Торрент   Размер 
В этой теме нет новых непрочитанных сообщений. В порту (1975) DVDRip | Реставрация

401 | 6

258.27 МБ

В этой теме нет новых непрочитанных сообщений. Старший сын (1975) DVDRip | Полная реставрация

58 | 12

1.9 ГБ

В этой теме нет новых непрочитанных сообщений. Ирония судьбы, или с легким паром (1975) DVDRip от MediaClub | КП реставрация

140 | 13

2.18 ГБ

В этой теме нет новых непрочитанных сообщений. Ирония судьбы, или с легким паром (1975) DVDRip от MediaClub | КП реставрация

860 | 41

1.46 ГБ

В этой теме нет новых непрочитанных сообщений. Ирония судьбы, или с легким паром (1975) DVDRip от MediaClub | КП реставрация

411 | 33

2.91 ГБ

В этой теме нет новых непрочитанных сообщений. Кот Леопольд и другие фильмы А. Резникова (1975-1987) DVDRip-AVC от R.G.RealMT | Реставрация

778 | 110

2.15 ГБ

В этой теме нет новых непрочитанных сообщений. Вариант "Омега" сериал (1975) DVDRip | полная реставрация

56 | 7

3.42 ГБ




Вы не можете начинать темы
Вы не можете отвечать на сообщения
Вы не можете редактировать свои сообщения
Вы не можете удалять свои сообщения
Вы не можете добавлять вложения

Перейти:  
Для Мосгорсуда, Роскомнадзора и рекламодателей: mosgorsud-torrent[собачка]yandex.ru
 Вход
ppkBB3cker v.2 © 2008-2014 @ PPK
[ Time : 0.016s | 14 Queries | GZIP : On ]

Торрент трекер RUTOR.IN, Не можете зайти на rutor.org? Какой новый адрес рутор? Какое зеркало рутор? Не работает rutor.org и зеркала? Тогда наш торрент специально для вас. Rutor.in неофициальное зеркало rutor. В случае если у Вас заблокирован rutor или вдруг Вы не можете на него зайти, то Вы без труда сможете скачать бесплатно и без рекламы последние новинки кино, игр, сериалов и прочего у нас, на Rutor.in. Не нужно использовать прокси, чтобы зайти на рутор, достаточно воспользоваться нашим ресурсом. Все новые фильмы, игры, сериалы, книги и музыка за 2013 и 2014 годы через торрент бесплатно. Скачивайте фильмы в хорошем качестве, игры для пк, xbox, playstation без регистрации. У нас вы найдете новые Зарубежные сериалы и Русские сериалы 2013, 2014, 2015 годов. Оставайтесь с нами, качайте любимые фильмы, игры, сериалы, книги и музыку.