img image001 image001 image001 image001 image001 image001 image001 image001 image001 image001 image001 image001 image001 image001 image001

Planets Sun Sun Sun
Статистика раздачи
Автор: Снежана | Размер: 4.37 ГБ | Добавлен: 24 июл 2013
Раздают: 1016    Качают: 30
Скачать торрент
Скачать торрент
Описание торрента

СообщениеДобавлено: 24 июл 2013 

#77


Адмиралъ (2012) BDRip 720p


- Информация о фильме:

Название: Адмиралъ
Год выхода: 2008
Жанр: боевик, триллер, криминал, исторический
Режиссер: Андрей Кравчук
В ролях: Константин Хабенский, Сергей Безруков, Анна Ковальчук, Николай Бурляев, Егор Бероев, Лиза Боярская, Александр Лазарев мл., Олег Фомин, Виктор Вержбицкий, Барбара Брыльска

- О фильме:
Фильм, рассказывающий о жизни и любви выдающегося боевого офицера военно-морского флота, полярного исследователя, а затем ставшего адмиралом, верховного правителя России — Александра Васильевича Колчака и Анны Тимиревой. События разворачиваются в период 1916-1920 годов на фоне крушения Российской империи, двух революций и Гражданской войны.

Продолжительность: 02:04:00
Перевод: Оригинал (не требуется)
Субтитры: рус / англ [полные]
Выпущено: Россия

- Файл:
Качество: BDRip 720p (исходник Blu-ray Disc)
Видео: 1280x534, 4590 Кбит/сек, 23.976 кадр/сек, AVC, x264, 2,40:1 , 0.280 Бит/(Пиксели*Кадры)
Аудио: AC-3, 448 Кбит/сек, 6 канала(ов), 48,0 КГц
Контейнер: MKV
Размер: 4,37 Гб





Автор Рипа:
General
Unique ID : 245628719688634298478845641938867798965 (0xB8CA5EE296F472BCA4B0AA969A5B43B5)
Complete name : J:АдмиралъAdmiral (2008).BDRip.720p.Rus.mkv
Format : Matroska
Format version : Version 4 / Version 2
File size : 4.37 GiB
Duration : 2h 4mn
Overall bit rate : 5 040 Kbps
Movie name : Адмиралъ / Admiral (2008).BDRip.720p.Rus
Encoded date : UTC 2013-01-31 19:00:37
Writing application : mkvmerge v6.0.0 ('Coming Up For Air') built on Jan 20 2013 09:52:00
Writing library : libebml v1.3.0 + libmatroska v1.4.0

Video
ID : 1
Format : AVC
Format/Info : Advanced Video Codec
Format profile : High@L4.1
Format settings, CABAC : Yes
Format settings, ReFrames : 12 frames
Codec ID : V_MPEG4/ISO/AVC
Duration : 2h 4mn
Bit rate : 4 590 Kbps
Width : 1 280 pixels
Height : 534 pixels
Display aspect ratio : 2.40:1
Original display aspect ratio : 2.40:1
Frame rate : 23.976 fps
Color space : YUV
Chroma subsampling : 4:2:0
Bit depth : 8 bits
Scan type : Progressive
Bits/(Pixel*Frame) : 0.280
Stream size : 3.89 GiB (89%)
Title : - Rip by kozak -
Writing library : x264 core 129 r2245 bc13772
Encoding settings : cabac=1 / ref=12 / deblock=1:0:0 / analyse=0x3:0x113 / me=umh / subme=11 / psy=1 / psy_rd=1.00:0.00 / mixed_ref=1 / me_range=32 / chroma_me=1 / trellis=2 / 8x8dct=1 / cqm=0 / deadzone=21,11 / fast_pskip=0 / chroma_qp_offset=-2 / threads=12 / lookahead_threads=2 / sliced_threads=0 / nr=0 / decimate=0 / interlaced=0 / bluray_compat=0 / constrained_intra=0 / bframes=12 / b_pyramid=2 / b_adapt=2 / b_bias=0 / direct=3 / weightb=1 / open_gop=0 / weightp=2 / keyint=240 / keyint_min=24 / scenecut=40 / intra_refresh=0 / rc_lookahead=60 / rc=2pass / mbtree=1 / bitrate=4590 / ratetol=1.0 / qcomp=0.60 / qpmin=0 / qpmax=51 / qpstep=4 / cplxblur=20.0 / qblur=0.5 / ip_ratio=1.40 / aq=1:1.00
Language : English
Default : Yes
Forced : No

Audio
ID : 2
Format : AC-3
Format/Info : Audio Coding 3
Mode extension : CM (complete main)
Codec ID : A_AC3
Duration : 2h 4mn
Bit rate mode : Constant
Bit rate : 448 Kbps
Channel(s) : 6 channels
Channel positions : Front: L C R, Side: L R, LFE
Sampling rate : 48.0 KHz
Bit depth : 16 bits
Compression mode : Lossy
Stream size : 397 MiB (9%)
Title : Оригинал
Language : Russian
Default : Yes
Forced : No

Text #1
ID : 3
Format : UTF-8
Codec ID : S_TEXT/UTF8
Codec ID/Info : UTF-8 Plain Text
Title : FULL
Language : Russian
Default : Yes
Forced : No

Text #2
ID : 4
Format : UTF-8
Codec ID : S_TEXT/UTF8
Codec ID/Info : UTF-8 Plain Text
Title : FULL
Language : English
Default : No
Forced : No

Menu
00:00:00.000 : en:00:00:00.000
00:01:33.176 : en:00:01:33.176
00:09:25.565 : en:00:09:25.565
00:13:54.417 : en:00:13:54.417
00:17:14.742 : en:00:17:14.742
00:26:57.241 : en:00:26:57.241
00:32:06.508 : en:00:32:06.508
00:42:39.056 : en:00:42:39.056
00:49:22.293 : en:00:49:22.293
00:56:44.067 : en:00:56:44.067
01:01:24.556 : en:01:01:24.556
01:10:44.031 : en:01:10:44.031
01:20:13.183 : en:01:20:13.183
01:27:02.509 : en:01:27:02.509
01:36:26.155 : en:01:36:26.155
01:40:39.075 : en:01:40:39.075
01:50:20.989 : en:01:50:20.989
01:59:02.510 : en:01:59:02.510








   Похожие торренты   Торрент   Размер 
В этой теме нет новых непрочитанных сообщений. Адмиралъ [01-10 из 10] (2008) BDRip 720p от HD Club

1 | 5

29.99 ГБ

В этой теме нет новых непрочитанных сообщений. Адмиралъ (2008) BDRip 720p от FreeHD

1 | 2

6.54 ГБ

В этой теме нет новых непрочитанных сообщений. Адмиралъ [01-10 из 10] (2008) BDRip 720p | Телеверсия

187 | 24

29.99 ГБ

В этой теме нет новых непрочитанных сообщений. Адмиралъ [01-10 из 10] (2008) BDRip-AVC

234 | 114

14.09 ГБ

В этой теме нет новых непрочитанных сообщений. Адмирал / Адмиралъ (2008) BDRip 720p by R.G. "48 Seconds" от Zlofenix

53 | 18

6.8 ГБ

В этой теме нет новых непрочитанных сообщений. Адмиралъ (2008) BDRip от HQ-ViDEO | Телеверсия

16 | 12

8.74 ГБ

В этой теме нет новых непрочитанных сообщений. Адмиралъ (2008) BDRip 1080p от FreeHD

7 | 7

11.99 ГБ




Вы не можете начинать темы
Вы не можете отвечать на сообщения
Вы не можете редактировать свои сообщения
Вы не можете удалять свои сообщения
Вы не можете добавлять вложения

Перейти:  
Для Мосгорсуда, Роскомнадзора и рекламодателей: mosgorsud-torrent[собачка]yandex.ru
 Вход
ppkBB3cker v.2 © 2008-2014 @ PPK
[ Time : 0.044s | 15 Queries | GZIP : Off ]

Торрент трекер RUTOR.IN, Не можете зайти на rutor.org? Какой новый адрес рутор? Какое зеркало рутор? Не работает rutor.org и зеркала? Тогда наш торрент специально для вас. Rutor.in неофициальное зеркало rutor. В случае если у Вас заблокирован rutor или вдруг Вы не можете на него зайти, то Вы без труда сможете скачать бесплатно и без рекламы последние новинки кино, игр, сериалов и прочего у нас, на Rutor.in. Не нужно использовать прокси, чтобы зайти на рутор, достаточно воспользоваться нашим ресурсом. Все новые фильмы, игры, сериалы, книги и музыка за 2013 и 2014 годы через торрент бесплатно. Скачивайте фильмы в хорошем качестве, игры для пк, xbox, playstation без регистрации. У нас вы найдете новые Зарубежные сериалы и Русские сериалы 2013, 2014, 2015 годов. Оставайтесь с нами, качайте любимые фильмы, игры, сериалы, книги и музыку.
cron