img image001 image001 image001 image001 image001 image001 image001 image001 image001 image001 image001 image001 image001 image001 image001

Planets Sun Sun Sun
Статистика раздачи
Автор: Снежана | Размер: 4.37 ГБ | Добавлен: 24 июл 2013
Раздают: 19    Качают: 5
Скачать торрент
Скачать торрент
Описание торрента

СообщениеДобавлено: 24 июл 2013 

#77


Дублёр (2012) BDRip 720p


- Информация о фильме:

Название: Дублёр
Год выхода: 2012
Жанр: комедия
Режиссер: Евгений Абызов
В ролях: Александр Ревва, Кристина Асмус, Дмитрий Хрусталев, Людмила Артемьева, Татьяна Орлова, Ксения Буравская, Варвара Малкова, Александра Кимаева, Евгений Шиманович, Алексей Рязанцев

- О фильме:
Главный герой нашей истории - успешный актер, звезда шоу-бизнеса Игорь Успенский. Его жизнь - сплошные съемки, концерты, презентации, корпоративы, интервью и светские тусовки. Он вынужден «крутиться» день и ночь, у него нет выходных и праздников. А его очаровательная жена и прекрасная дочка видят его в лучшем случае поздно ночью, когда он приезжает домой, чтобы поспать хотя бы пару часов. Но все труды не проходят даром. Игорь очень популярен и однажды его кандидатуру выдвигают на премию «Человек года» - теперь ему нужно еще больше времени, чтобы победить главного конкурента - певца Михаила Стасова, главные хиты которого свели с ума всех женщин России...

Продолжительность: 01:23:34
Перевод: Оригинал (не требуется)
Субтитры: нет
Выпущено: Россия

- Файл:
Качество: BDRip 720p (исходник Blu-ray Disc)
Видео: 1280x576, 7099 Кбит/сек, 24.000 кадр/сек, AVC, x264, 2,222:1 , 0.401 Бит/(Пиксели*Кадры)
Аудио: AC-3, 384 Кбит/сек, 6 канала(ов), 48,0 КГц
Контейнер: MKV
Размер: 4,37 Гб





Автор Рипа:
General
Unique ID : 245533701695190448062329151819472103184 (0xB8B81222E7900122B49739E8B506E710)
Complete name : J:ДублёрDubler (2013).BDRip.720p.Rus.mkv
Format : Matroska
Format version : Version 4 / Version 2
File size : 4.37 GiB
Duration : 1h 23mn
Overall bit rate : 7 481 Kbps
Movie name : Дублёр / Dubler (2013).BDRip.720p.Rus
Encoded date : UTC 2013-02-01 17:22:35
Writing application : mkvmerge v6.0.0 ('Coming Up For Air') built on Jan 20 2013 09:52:00
Writing library : libebml v1.3.0 + libmatroska v1.4.0

Video
ID : 1
Format : AVC
Format/Info : Advanced Video Codec
Format profile : High@L4.1
Format settings, CABAC : Yes
Format settings, ReFrames : 11 frames
Codec ID : V_MPEG4/ISO/AVC
Duration : 1h 23mn
Bit rate : 7 099 Kbps
Width : 1 280 pixels
Height : 576 pixels
Display aspect ratio : 2.222
Frame rate : 24.000 fps
Color space : YUV
Chroma subsampling : 4:2:0
Bit depth : 8 bits
Scan type : Progressive
Bits/(Pixel*Frame) : 0.401
Stream size : 4.06 GiB (93%)
Title : - Rip by kozak -
Writing library : x264 core 129 r2245 bc13772
Encoding settings : cabac=1 / ref=11 / deblock=1:0:0 / analyse=0x3:0x113 / me=umh / subme=11 / psy=1 / psy_rd=1.00:0.00 / mixed_ref=1 / me_range=32 / chroma_me=1 / trellis=2 / 8x8dct=1 / cqm=0 / deadzone=21,11 / fast_pskip=0 / chroma_qp_offset=-2 / threads=12 / lookahead_threads=2 / sliced_threads=0 / nr=0 / decimate=0 / interlaced=0 / bluray_compat=0 / constrained_intra=0 / bframes=12 / b_pyramid=2 / b_adapt=2 / b_bias=0 / direct=3 / weightb=1 / open_gop=0 / weightp=2 / keyint=240 / keyint_min=24 / scenecut=40 / intra_refresh=0 / rc_lookahead=60 / rc=2pass / mbtree=1 / bitrate=7099 / ratetol=1.0 / qcomp=0.60 / qpmin=0 / qpmax=51 / qpstep=4 / cplxblur=20.0 / qblur=0.5 / ip_ratio=1.40 / aq=1:1.00
Language : English
Default : Yes
Forced : No

Audio
ID : 2
Format : AC-3
Format/Info : Audio Coding 3
Mode extension : CM (complete main)
Codec ID : A_AC3
Duration : 1h 23mn
Bit rate mode : Constant
Bit rate : 384 Kbps
Channel(s) : 6 channels
Channel positions : Front: L C R, Side: L R, LFE
Sampling rate : 48.0 KHz
Bit depth : 16 bits
Compression mode : Lossy
Stream size : 230 MiB (5%)
Title : Оригинал
Language : Russian
Default : Yes
Forced : No

Menu
00:00:00.000 : en:00:00:00.000
00:06:00.375 : en:00:06:00.375
00:13:55.833 : en:00:13:55.833
00:22:29.875 : en:00:22:29.875
00:27:09.667 : en:00:27:09.667
00:36:01.042 : en:00:36:01.042
00:42:06.667 : en:00:42:06.667
00:50:57.042 : en:00:50:57.042
01:00:46.458 : en:01:00:46.458
01:05:38.167 : en:01:05:38.167
01:10:03.708 : en:01:10:03.708
01:20:13.292 : en:01:20:13.292








   Похожие торренты   Торрент   Размер 
В этой теме нет новых непрочитанных сообщений. Дублер (2012) BDRip-AVC Трейлер

25 | 3

88.02 МБ

В этой теме нет новых непрочитанных сообщений. Дублёр (2012) BDRip 1080p от Youtracker | Лицензия

13 | 4

6.32 ГБ

В этой теме нет новых непрочитанных сообщений. Дублёр (2013) BDRip 720p от Leonardo

158 | 9

2.9 ГБ

В этой теме нет новых непрочитанных сообщений. Дублёр (2013) BDRip 720p | лицензия

21 | 4

3.67 ГБ

В этой теме нет новых непрочитанных сообщений. Дублёр (2013) BDRip 720p от potroks | Лицензия

165 | 6

2.18 ГБ

В этой теме нет новых непрочитанных сообщений. Дублёр (2013) BDRip-AVC | iPad

11 | 3

1.14 ГБ

В этой теме нет новых непрочитанных сообщений. Дублёр (2013) BDRip-AVC от FREEISLAND

154 | 6

1.36 ГБ




Вы не можете начинать темы
Вы не можете отвечать на сообщения
Вы не можете редактировать свои сообщения
Вы не можете удалять свои сообщения
Вы не можете добавлять вложения

Перейти:  
Для Мосгорсуда, Роскомнадзора и рекламодателей: mosgorsud-torrent[собачка]yandex.ru
 Вход
ppkBB3cker v.2 © 2008-2014 @ PPK
[ Time : 1.978s | 16 Queries | GZIP : Off ]

Торрент трекер RUTOR.IN, Не можете зайти на rutor.org? Какой новый адрес рутор? Какое зеркало рутор? Не работает rutor.org и зеркала? Тогда наш торрент специально для вас. Rutor.in неофициальное зеркало rutor. В случае если у Вас заблокирован rutor или вдруг Вы не можете на него зайти, то Вы без труда сможете скачать бесплатно и без рекламы последние новинки кино, игр, сериалов и прочего у нас, на Rutor.in. Не нужно использовать прокси, чтобы зайти на рутор, достаточно воспользоваться нашим ресурсом. Все новые фильмы, игры, сериалы, книги и музыка за 2013 и 2014 годы через торрент бесплатно. Скачивайте фильмы в хорошем качестве, игры для пк, xbox, playstation без регистрации. У нас вы найдете новые Зарубежные сериалы и Русские сериалы 2013, 2014, 2015 годов. Оставайтесь с нами, качайте любимые фильмы, игры, сериалы, книги и музыку.