img image001 image001 image001 image001 image001 image001 image001 image001 image001 image001 image001 image001 image001 image001 image001

Planets Sun Sun Sun
Статистика раздачи
Автор: Снежана | Размер: 4.37 ГБ | Добавлен: 24 июл 2013
Раздают: 140    Качают: 14
Скачать торрент
Скачать торрент
Описание торрента

СообщениеДобавлено: 24 июл 2013 

#77

Информация о фильме
Название: Я тоже хочу
Год выхода: 2012
Жанр: драма, криминал
Режиссер: Алексей Балабанов
В ролях: Александр Мосин, Олег Гаркуша, Юрий Матвеев, Алиса Шитикова, Алексей Балабанов, Петр Балабанов, Виктор Горбунов, Авдотья Смирнова, Сергей Шолохов, Сергей Кульчицкий

О фильме: По пустынной летней дороге мчится огромный черный джип. В нем — Бандит, его друг Матвей со стариком-отцом, Музыкант и красивая девушка. Они ищут Колокольню Счастья, которая по слухам находится где-то между Питером и Угличем, рядом с уже давно неработающей атомной станцией. Колокольня забирает людей. Но не всех. Но в темной большой машине каждый верит, что выберут его.



Выпущено: Кинокомпания CTB
Продолжительность: 01:19:52
Перевод: Оригинал (лицензия)

Файл
Кодек: x264
Качество: BDRip (источник: Blu-ray Disc)
Видео: 1920x1080 (16:9), 25 fps, 7196 kbps
Аудио: AC-3, 6 ch, 640 kbps
Скачать: сэмпл

Скриншоты

Общее
Уникальный идентификатор : 250316213706560273752880566327703013021 (0xBC51262EFA131BFB8394FFCE3A48869D)
Полное имя : Ya.tozhe.khochu.2012.BDRip.1080p.Rus.mkv
Формат : Matroska
Версия формата : Version 2
Размер файла : 4,37 Гбайт
Продолжительность : 1 ч. 19 м.
Общий поток : 7838 Кбит/сек
Название фильма : Я тоже хочу (2012)
Дата кодирования : UTC 2013-02-02 10:53:12
Программа кодирования : mkvmerge v5.8.0 ('No Sleep / Pillow') built on Sep 2 2012 15:37:04
Библиотека кодирования : libebml v1.2.3 + libmatroska v1.3.0

Видео
Идентификатор : 1
Формат : AVC
Формат/Информация : Advanced Video Codec
Профиль формата : High@L4.1
Параметр CABAC формата : Да
Параметр ReFrames формата : 4 кадра
Идентификатор кодека : V_MPEG4/ISO/AVC
Продолжительность : 1 ч. 19 м.
Битрейт : 7196 Кбит/сек
Ширина : 1920 пикселей
Высота : 1080 пикселей
Соотношение сторон : 16:9
Частота кадров : 25,000 кадров/сек
Цветовое пространство : YUV
Субдискретизация насыщенности : 4:2:0
Битовая глубина : 8 бит
Тип развёртки : Прогрессивная
Бит/(Пиксели*Кадры) : 0.139
Размер потока : 3,93 Гбайт (90%)
Заголовок : Release by AlexKa
Библиотека кодирования : x264 core 129 r2245 bc13772
Настройки программы : cabac=1 / ref=4 / deblock=1:-3:-3 / analyse=0x3:0x133 / me=umh / subme=10 / psy=1 / psy_rd=1.10:0.00 / mixed_ref=1 / me_range=32 / chroma_me=1 / trellis=2 / 8x8dct=1 / cqm=0 / deadzone=21,11 / fast_pskip=0 / chroma_qp_offset=-2 / threads=12 / lookahead_threads=2 / sliced_threads=0 / nr=0 / decimate=0 / interlaced=0 / bluray_compat=0 / constrained_intra=0 / bframes=5 / b_pyramid=2 / b_adapt=2 / b_bias=0 / direct=3 / weightb=1 / open_gop=0 / weightp=2 / keyint=250 / keyint_min=25 / scenecut=40 / intra_refresh=0 / rc=2pass / mbtree=0 / bitrate=7196 / ratetol=1.0 / qcomp=0.60 / qpmin=0 / qpmax=69 / qpstep=4 / cplxblur=20.0 / qblur=0.5 / ip_ratio=1.40 / pb_ratio=1.30 / aq=1:0.70
Язык : Russian

Аудио
Идентификатор : 2
Формат : AC-3
Формат/Информация : Audio Coding 3
Расширение режима : CM (complete main)
Идентификатор кодека : A_AC3
Продолжительность : 1 ч. 19 м.
Вид битрейта : Постоянный
Битрейт : 640 Кбит/сек
Каналы : 6 каналов
Расположение каналов : Front: L C R, Side: L R, LFE
Частота : 48,0 КГц
Битовая глубина : 16 бит
Метод сжатия : С потерями
Размер потока : 366 Мбайт (8%)
Язык : Russian

Меню
00:00:00.000 : :Chapter 01
00:06:02.679 : :Chapter 02
00:11:28.599 : :Chapter 03
00:16:42.400 : :Chapter 04
00:25:26.280 : :Chapter 05
00:32:08.840 : :Chapter 06
00:39:30.080 : :Chapter 07
00:46:23.160 : :Chapter 08
00:52:33.040 : :Chapter 09
01:00:25.200 : :Chapter 10
01:08:25.320 : :Chapter 11
01:13:45.520 : :Chapter 12
01:19:51.880 : :Chapter 13
x264 [info]: frame I:607 Avg QP:15.38 size:170991
x264 [info]: frame P:25557 Avg QP:18.22 size: 73278
x264 [info]: frame B:93636 Avg QP:20.83 size: 24924



   Похожие торренты   Торрент   Размер 
В этой теме нет новых непрочитанных сообщений. LG Демо (март 2012) в 3Д / LG Demo (march 2012) 3D (2012) BDRip 1080p | 3D-Video

278 | 19

4.1 ГБ

В этой теме нет новых непрочитанных сообщений. Stratovarius - Fight. Клип по фильму 2012 / 2012 (2010) BDRip 1080p

0 | 10

358.24 МБ

В этой теме нет новых непрочитанных сообщений. Panasonic Демо 3Д 2012 / Panasonic Demo 3D 2012 (2012) BDRip 720p, 1080p | 3D-Video

136 | 20

5.55 ГБ

В этой теме нет новых непрочитанных сообщений. 2012 / 2012 (2009) BDRip 1080p от qzqz72

22 | 10

8.42 ГБ

В этой теме нет новых непрочитанных сообщений. 2012 / 2012 (2009) BDRip 1080p

66 | 5

11.51 ГБ

В этой теме нет новых непрочитанных сообщений. 2012 / 2012 (2009) BDRip 1080p от CHD

16 | 9

16.14 ГБ

В этой теме нет новых непрочитанных сообщений. 2012 / 2012 (2009) BDRip 1080p

122 | 13

7.76 ГБ




Вы не можете начинать темы
Вы не можете отвечать на сообщения
Вы не можете редактировать свои сообщения
Вы не можете удалять свои сообщения
Вы не можете добавлять вложения

Перейти:  
Для Мосгорсуда, Роскомнадзора и рекламодателей: mosgorsud-torrent[собачка]yandex.ru
 Вход
ppkBB3cker v.2 © 2008-2014 @ PPK
[ Time : 0.032s | 16 Queries | GZIP : Off ]
CGP output time : 0.012s | 5 Queries | GZIP : Off

Торрент трекер RUTOR.IN, Не можете зайти на rutor.org? Какой новый адрес рутор? Какое зеркало рутор? Не работает rutor.org и зеркала? Тогда наш торрент специально для вас. Rutor.in неофициальное зеркало rutor. В случае если у Вас заблокирован rutor или вдруг Вы не можете на него зайти, то Вы без труда сможете скачать бесплатно и без рекламы последние новинки кино, игр, сериалов и прочего у нас, на Rutor.in. Не нужно использовать прокси, чтобы зайти на рутор, достаточно воспользоваться нашим ресурсом. Все новые фильмы, игры, сериалы, книги и музыка за 2013 и 2014 годы через торрент бесплатно. Скачивайте фильмы в хорошем качестве, игры для пк, xbox, playstation без регистрации. У нас вы найдете новые Зарубежные сериалы и Русские сериалы 2013, 2014, 2015 годов. Оставайтесь с нами, качайте любимые фильмы, игры, сериалы, книги и музыку.