img image001 image001 image001 image001 image001 image001 image001 image001 image001 image001 image001 image001 image001 image001 image001

Planets Sun Sun Sun
Статистика раздачи
Автор: Снежана | Размер: 6.32 ГБ | Добавлен: 24 июл 2013
Раздают: 13    Качают: 4
Скачать торрент
Скачать торрент
Описание торрента

СообщениеДобавлено: 24 июл 2013 

Дублёр
«Я Звезда. Так тяжело быть Звездой.» ©


#77

Страна: Россия
Студия: Enjoy Movies
Жанр: комедия
Год выпуска: 2012
Продолжительность: 01:23:34

Перевод: Профессиональный (оригинальный) [лицензия]
Оригинальная аудиодорожка: русская
Русские субтитры: нет
Режиссер: Евгений Абызов
В ролях: Александр Ревва, Кристина Асмус, Дмитрий Хрусталев, Людмила Артемьева, Татьяна Орлова, Ксения Буравская, Варвара Малкова, Александра Кимаева, Евгений Шиманович, Алексей Рязанцев


Главный герой нашей истории — успешный актер, звезда шоу-бизнеса Игорь Успенский. Его жизнь — сплошные съемки, концерты, презентации, корпоративы, интервью и светские тусовки. Он вынужден «крутиться» день и ночь, у него нет выходных и праздников. А его очаровательная жена и прекрасная дочка видят его в лучшем случае поздно ночью, когда он приезжает домой, чтобы поспать хотя бы пару часов. Но все труды не проходят даром. Игорь очень популярен и однажды его кандидатуру выдвигают на премию «Человек года» — теперь ему нужно еще больше времени, чтобы победить главного конкурента — певца Михаила Стасова, главные хиты которого свели с ума всех женщин России…
В подмосковном городе живет Сева, человек, чрезвычайно похожий на Игоря Успенского. Он работает массажистом в салоне красоты, живет вдвоем с собакой по имени Сергей Валерьевич, абсолютно доволен своей жизнью и не признает сходства со звездой. Однажды директор салона убеждает Севу сняться в рекламном ролике, где САМ Игорь Успенский (конечно, изображаемый Севой) делает массаж клиентам салона. Ролик оказывается в интернете — так о своем двойнике узнает Успенский. Понимая, что времени ни на что не хватает, Успенский решает не подавать в суд на салон, а предложить Севе стать своим Дублером. Тому лишь нужно посетить несколько корпоративов и светских тусовок в образе Игоря Успенского. Сева принимает предложение и… попадает в незнакомый мир шоу-бизнеса, где его ждут невероятные приключения…

Тип релиза: BDRip 1080p
Контейнер: MKV
Видео кодек: x264
Аудио кодек: AC3
Видео: AVC / High@L4.1 / 2 pass / 24,000 fps / 1920x872p / 10,2 Mbps / 0.254
Аудио: AC3 / 5.1 ch / 640 kbps / Русский original BD RUS
Субтитры: нет
Дополнительно: Сохранены оригинальные чаптеры как на Blu-ray
Рип от: Killbrain


Раздача от:











Общее
Уникальный идентификатор : 170505439972921086124957741721919606446 (0x8046273B8DE85ABE86B1D2BA48C6CEAE)
Полное имя : F:Скачка торрентDubler.2012.BDRip1080p(Killbrain).mkv
Формат : Matroska
Версия формата : Version 4 / Version 2
Размер файла : 6,32 Гбайт
Продолжительность : 1 ч. 23 м.
Общий поток : 10,8 Мбит/сек
Название фильма : Dubler (2012) by Killbrain
Дата кодирования : UTC 2010-02-22 21:41:31
Программа кодирования : mkvmerge v5.9.0 ('On The Loose') built on Dec 9 2012 15:37:01
Библиотека кодирования : libebml v1.3.0 + libmatroska v1.4.0

Видео
Идентификатор : 1
Формат : AVC
Формат/Информация : Advanced Video Codec
Профиль формата : High@L4.1
Параметр CABAC формата : Да
Параметр ReFrames формата : 4 кадра
Идентификатор кодека : V_MPEG4/ISO/AVC
Продолжительность : 1 ч. 23 м.
Битрейт : 10,2 Мбит/сек
Ширина : 1920 пикселей
Высота : 872 пикселя
Соотношение сторон : 2,2:1
Режим частоты кадров : Постоянный
Частота кадров : 24,000 кадра/сек
Цветовое пространство : YUV
Субдискретизация насыщенности : 4:2:0
Битовая глубина : 8 бит
Тип развёртки : Прогрессивная
Бит/(Пиксели*Кадры) : 0.254
Размер потока : 5,82 Гбайт (92%)
Заголовок : Dubler (2012)
Библиотека кодирования : x264 core 128 r2216 198a7ea
Настройки программы : cabac=1 / ref=4 / deblock=1:-3:-3 / analyse=0x3:0x113 / me=umh / subme=10 / psy=1 / psy_rd=1.00:0.15 / mixed_ref=1 / me_range=16 / chroma_me=1 / trellis=2 / 8x8dct=1 / cqm=0 / deadzone=21,11 / fast_pskip=1 / chroma_qp_offset=-3 / threads=3 / lookahead_threads=1 / sliced_threads=0 / nr=0 / decimate=0 / interlaced=0 / bluray_compat=0 / constrained_intra=0 / bframes=8 / b_pyramid=2 / b_adapt=2 / b_bias=0 / direct=3 / weightb=1 / open_gop=0 / weightp=2 / keyint=240 / keyint_min=23 / scenecut=40 / intra_refresh=0 / rc_lookahead=60 / rc=2pass / mbtree=0 / bitrate=10200 / ratetol=1.0 / qcomp=0.70 / qpmin=0 / qpmax=69 / qpstep=4 / cplxblur=20.0 / qblur=0.5 / vbv_maxrate=40000 / vbv_bufsize=40000 / nal_hrd=none / ip_ratio=1.40 / pb_ratio=1.30 / aq=1:0.80
Язык : Russian
Default : Да
Forced : Нет

Аудио
Идентификатор : 2
Формат : AC-3
Формат/Информация : Audio Coding 3
Расширение режима : CM (complete main)
Параметр Endianness формата : Big
Идентификатор кодека : A_AC3
Продолжительность : 1 ч. 23 м.
Вид битрейта : Постоянный
Битрейт : 640 Кбит/сек
Каналы : 6 каналов
Расположение каналов : Front: L C R, Side: L R, LFE
Частота : 48,0 КГц
Битовая глубина : 16 бит
Метод сжатия : С потерями
Размер потока : 383 Мбайт (6%)
Заголовок : AC3 / 5.1 ch / 640 kbps / Русский original BD RUS
Язык : Russian
Default : Да
Forced : Нет

Меню
00:00:00.000 : :Chapter 01
00:06:00.375 : :Chapter 02
00:13:55.833 : :Chapter 03
00:22:29.875 : :Chapter 04
00:27:09.666 : :Chapter 05
00:36:01.041 : :Chapter 06
00:42:06.666 : :Chapter 07
00:50:57.041 : :Chapter 08
01:00:46.458 : :Chapter 09
01:05:38.166 : :Chapter 10
01:10:03.708 : :Chapter 11
01:20:13.291 : :Chapter 12








   Похожие торренты   Торрент   Размер 
В этой теме нет новых непрочитанных сообщений. Дублёр (2013) BDRip от Youtracker | Лицензия

112 | 9

744.63 МБ

В этой теме нет новых непрочитанных сообщений. Метро (2012) BDRip 1080p от Youtracker | Лицензия

76 | 6

12.09 ГБ

В этой теме нет новых непрочитанных сообщений. Дублёр (2013) BDRip 720p | лицензия

21 | 4

3.67 ГБ

В этой теме нет новых непрочитанных сообщений. Линкольн / Lincoln (2012) BDRip 1080p от Youtracker | Лицензия

2 | 3

17.1 ГБ

В этой теме нет новых непрочитанных сообщений. Отверженные / Les Misérables (2012) BDRip 1080p от Youtracker | Лицензия

23 | 3

18.22 ГБ

В этой теме нет новых непрочитанных сообщений. Шимпанзе / Chimpanzee (2012) BDRip 1080p от Youtracker | Лицензия

2 | 2

8.62 ГБ

В этой теме нет новых непрочитанных сообщений. Жизнь Пи / Life of Pi (2012) BDRip 1080p от Youtracker | Лицензия

54 | 9

13.06 ГБ




Вы не можете начинать темы
Вы не можете отвечать на сообщения
Вы не можете редактировать свои сообщения
Вы не можете удалять свои сообщения
Вы не можете добавлять вложения

Перейти:  
Для Мосгорсуда, Роскомнадзора и рекламодателей: mosgorsud-torrent[собачка]yandex.ru
 Вход
ppkBB3cker v.2 © 2008-2014 @ PPK
[ Time : 0.033s | 14 Queries | GZIP : Off ]

Торрент трекер RUTOR.IN, Не можете зайти на rutor.org? Какой новый адрес рутор? Какое зеркало рутор? Не работает rutor.org и зеркала? Тогда наш торрент специально для вас. Rutor.in неофициальное зеркало rutor. В случае если у Вас заблокирован rutor или вдруг Вы не можете на него зайти, то Вы без труда сможете скачать бесплатно и без рекламы последние новинки кино, игр, сериалов и прочего у нас, на Rutor.in. Не нужно использовать прокси, чтобы зайти на рутор, достаточно воспользоваться нашим ресурсом. Все новые фильмы, игры, сериалы, книги и музыка за 2013 и 2014 годы через торрент бесплатно. Скачивайте фильмы в хорошем качестве, игры для пк, xbox, playstation без регистрации. У нас вы найдете новые Зарубежные сериалы и Русские сериалы 2013, 2014, 2015 годов. Оставайтесь с нами, качайте любимые фильмы, игры, сериалы, книги и музыку.