img image001 image001 image001 image001 image001 image001 image001 image001 image001 image001 image001 image001 image001 image001 image001

Planets Sun Sun Sun
Статистика раздачи
Автор: Снежана | Размер: 1.45 ГБ | Добавлен: 24 июл 2013
Раздают: 71    Качают: 15
Скачать торрент
Скачать торрент
Описание торрента

СообщениеДобавлено: 24 июл 2013 

#77
Страна: СССР
Производство: Ленфильм
Жанр: драма
Год выпуска: 1964
Продолжительность: 02:22:42 (01:11:38+01:11:04)

Перевод: не требуется
Оригинальная аудиодорожка: русский
Cубтитры: нет

Режиссер: Григорий Козинцев

В ролях: Иннокентий Смоктуновский, Анастасия Вертинская, Иван Дмитриев, Вадим Медведев, Юрий Толубеев, Виктор Колпаков, Эльза Радзиня, Рейн Арен, Владимир Эренберг, Михаил Названов, Степан Олексенко, Александр Чекаевский, Антс Лаутэр, Юрий Беркун...

Описание: Фильм этот — попытка современного прочтения шекспировской трагедии. За всю историю Эльсинора, мрачного замка, хранящего тайну не одного преступления, Гамлет, быть может, первый человек, который без прежней легкости и уверенности в своей правоте берется за оружие, чтобы отомстить. Он — первый мыслитель в ряду воинов. Мысль его выше действия, яснее и точнее поступков. Постановщика фильма привлекают действия Гамлета. Композитор Д. Шостакович остается сторонником мысли Гамлета. Героизм размышления, героизм понимания — вот что воплощает музыка композитора. Музыкальная тема гамлетовского сомнения в фильме становится важнейшей. Она звучит неоднократно: озвучивает монолог «Быть или не быть», возникает в эпизоде с войсками Фортинбраса и в финальном поединке. Свое прочтение дает режиссер и образу Офелии. Она предстает на экране марионеткой, красивой куклой. Заученны ее движения, словно бы она действует под гипнозом: рука направо, шаг вперед, поворот. Шостакович присоединяется к такой трактовке. Ее танец и в музыке — танец заводной куклы, танец балерины с музыкальной шкатулки. Казалось бы, в экспозиции заключен приговор. Но композитор убежден: чувство Гамлета к Офелии не было ошибкой. Девушка подавлена страшным миром интриг и злодейств, пытается быть послушной отцу, выполнять чужие приказы. Сама гибель Офелии для композитора — ее спасение и приговор обществу, запутавшему ее в своих интригах. И над водой, этой своеобразной «гробницей Офелии», звучит мелодия огромной впечатляющей силы и любви. Композитор не скрывает своего авторского отношения к представленному на экране. Он судит Клавдия и Гертруду, симпатизирует актерам, понимает драму Офелии. Он находит в Гамлете И. Смоктуновского своего героя, заряжает интонацией актера свою музыку. Медленно движется процессия, провожающая Гамлета в последний путь. Звучит траурный марш. Убит герой, чужой среди современников и близкий всем грядущим поколениям. Это грандиозный марш-плач, открывающий дорогу в бессмертие. Полемика режиссера и композитора окончена. В этой точке они солидарны. И не случайно Г. Козинцев позволил композитору иметь свою точку зрения, свою позицию. Гамлет — наш современник — рождался на пересечении разных пониманий классического образа и потому становился действительно современным: героем действия и героем мысли...





Полная реставрация изображения и звука. Компания "Крупный План"

Исходник: DVD9 R5
Тип релиза: DVDRip
Контейнер: AVI

Видео: 688x288 (2.40:1), 25 fps, XviD ~ 1008 kbps avg, 0.203 bit/pixel
Аудио: 48 kHz, Dolby AC3 5.1, 448 kbps

Раздача от:
Общее
Полное имя : Gamlet.1964.DVDRip_[Youtracker]_by_AVP StudioGamlet.1964.DVDRip-02.avi
Формат : AVI
Формат/Информация : Audio Video Interleave
Размер файла : 745 Мбайт
Продолжительность : 1 ч. 11 м.
Общий поток : 1465 Кбит/сек
Программа кодирования : VirtualDubMod 1.5.10.3 | www.virtualdub-fr.org || (build 2550/release)
Библиотека кодирования : VirtualDubMod build 2550/release

Видео
Идентификатор : 0
Формат : MPEG-4 Visual
Профиль формата : Advanced Simple@L5
Параметр BVOP формата : 1
Параметр QPel формата : Нет
Параметр GMC формата : Без точки перехода
Параметр матрицы формата : Выборочная
Идентификатор кодека : XVID
Идентификатор кодека/Подсказка : XviD
Продолжительность : 1 ч. 11 м.
Битрейт : 1008 Кбит/сек
Ширина : 688 пикселей
Высота : 288 пикселей
Соотношение сторон : 2,40:1
Частота кадров : 25,000 кадров/сек
Цветовое пространство : YUV
Субдискретизация насыщенности : 4:2:0
Битовая глубина : 8 бит
Тип развёртки : Прогрессивная
Метод сжатия : С потерями
Бит/(Пиксели*Кадры) : 0.203
Размер потока : 512 Мбайт (69%)
Библиотека кодирования : XviD 65

Аудио
Идентификатор : 1
Формат : AC-3
Формат/Информация : Audio Coding 3
Расширение режима : CM (complete main)
Идентификатор кодека : 2000
Продолжительность : 1 ч. 11 м.
Вид битрейта : Постоянный
Битрейт : 448 Кбит/сек
Каналы : 6 каналов
Расположение каналов : Front: L C R, Side: L R, LFE
Частота : 48,0 КГц
Битовая глубина : 16 бит
Метод сжатия : С потерями
Размер потока : 228 Мбайт (31%)
Выравнивание : Разделение по промежуткам
Продолжительность промежутка : 40 мс. (1,00 видеокадр)
Время предзагрузки промежутка : 500 мс





   Похожие торренты   Торрент   Размер 
В этой теме нет новых непрочитанных сообщений. Гамлет (1964) DVDRip-AVC от Youtracker

174 | 4

2.18 ГБ

В этой теме нет новых непрочитанных сообщений. Гамлет (1964) DVD5 от Youtracker | Сжатый

14 | 2

4.37 ГБ

В этой теме нет новых непрочитанных сообщений. Гамлет (1964) DVD9 | Реставрация

156 | 11

6.51 ГБ

В этой теме нет новых непрочитанных сообщений. Ко мне, Мухтар! (1964) DVDRip от Youtracker

10 | 9

744.28 МБ

В этой теме нет новых непрочитанных сообщений. Жаворонок (1964) DVDRip от Youtracker

15 | 2

745.08 МБ

В этой теме нет новых непрочитанных сообщений. Жаворонок (1964) DVDRip-AVC от Youtracker

22 | 2

1.46 ГБ

В этой теме нет новых непрочитанных сообщений. Морозко (1964) DVDRip от Youtracker

491 | 22

739.98 МБ




Вы не можете начинать темы
Вы не можете отвечать на сообщения
Вы не можете редактировать свои сообщения
Вы не можете удалять свои сообщения
Вы не можете добавлять вложения

Перейти:  
Для Мосгорсуда, Роскомнадзора и рекламодателей: mosgorsud-torrent[собачка]yandex.ru
 Вход
ppkBB3cker v.2 © 2008-2014 @ PPK
[ Time : 0.029s | 17 Queries | GZIP : Off ]

Торрент трекер RUTOR.IN, Не можете зайти на rutor.org? Какой новый адрес рутор? Какое зеркало рутор? Не работает rutor.org и зеркала? Тогда наш торрент специально для вас. Rutor.in неофициальное зеркало rutor. В случае если у Вас заблокирован rutor или вдруг Вы не можете на него зайти, то Вы без труда сможете скачать бесплатно и без рекламы последние новинки кино, игр, сериалов и прочего у нас, на Rutor.in. Не нужно использовать прокси, чтобы зайти на рутор, достаточно воспользоваться нашим ресурсом. Все новые фильмы, игры, сериалы, книги и музыка за 2013 и 2014 годы через торрент бесплатно. Скачивайте фильмы в хорошем качестве, игры для пк, xbox, playstation без регистрации. У нас вы найдете новые Зарубежные сериалы и Русские сериалы 2013, 2014, 2015 годов. Оставайтесь с нами, качайте любимые фильмы, игры, сериалы, книги и музыку.
cron