img image001 image001 image001 image001 image001 image001 image001 image001 image001 image001 image001 image001 image001 image001 image001

Planets Sun Sun Sun
Статистика раздачи
Автор: Снежана | Размер: 4.37 ГБ | Добавлен: 24 июл 2013
Раздают: 104    Качают: 6
Скачать торрент
Скачать торрент
Описание торрента

СообщениеДобавлено: 24 июл 2013 

#77

Информация о фильме
Название: Дублёр
Год выхода: 2013
Жанр: Комедия
Режиссер: Евгений Абызов
В ролях: Александр Ревва, Кристина Асмус, Дмитрий Хрусталев, Людмила Артемьева, Татьяна Орлова, Ксения Буравская, Варвара Малкова, Александра Кимаева, Евгений Шиманович, Алексей Рязанцев

Сюжет фильма
Главный герой нашей истории - успешный актер, звезда шоу-бизнеса Игорь Успенский. Его жизнь - сплошные съемки, концерты, презентации, корпоративы, интервью и светские тусовки. Он вынужден «крутиться» день и ночь, у него нет выходных и праздников. А его очаровательная жена и прекрасная дочка видят его в лучшем случае поздно ночью, когда он приезжает домой, чтобы поспать хотя бы пару часов. Но все труды не проходят даром. Игорь очень популярен и однажды его кандидатуру выдвигают на премию «Человек года» - теперь ему нужно еще больше времени, чтобы победить главного конкурента - певца Михаила Стасова, главные хиты которого свели с ума всех женщин России...

Выпущено: Россия
Продолжительность: 01:23:34
Перевод: Оригинал
Субтитры: Нет

Файл
Качество: BDRip 1080p (исходник Blu-Ray)
Видео: 1920x872, 7098 Кбит/сек, 24.000 кадр/сек, AVC, x264, High@L4.1, 2.2:1, 0.177 Бит/[Пиксели*Кадры], 2pass
Аудио: AC-3, 384 Кбит/сек, 6 канала(ов), 48,0 КГц
Чаптеры: Есть



Семпл

Релиз Группа | Автор Рипа:

General
Unique ID : 244270968660839633964798558831344000961 (0xB7C4E0974FE2C1339F65312B47B29FC1)
Complete name : N:NoLimits-TeamDubler.(2013).BDRip.1080p.[NoLimits-Team].mkv
Format : Matroska
Format version : Version 4 / Version 2
File size : 4.37 GiB
Duration : 1h 23mn
Overall bit rate : 7 479 Kbps
Movie name : Dubler.(2013).BDRip.1080p.[NoLimits-Team]
Encoded date : UTC 2013-02-05 13:19:13
Writing application : mkvmerge v6.0.0 ('Coming Up For Air') built on Jan 20 2013 09:52:00
Writing library : libebml v1.3.0 + libmatroska v1.4.0

Video
ID : 1
Format : AVC
Format/Info : Advanced Video Codec
Format profile : High@L4.1
Format settings, CABAC : Yes
Format settings, ReFrames : 4 frames
Codec ID : V_MPEG4/ISO/AVC
Duration : 1h 23mn
Bit rate : 7 098 Kbps
Width : 1 920 pixels
Height : 872 pixels
Display aspect ratio : 2.2:1
Frame rate mode : Constant
Frame rate : 24.000 fps
Color space : YUV
Chroma subsampling : 4:2:0
Bit depth : 8 bits
Scan type : Progressive
Bits/(Pixel*Frame) : 0.177
Stream size : 4.05 GiB (93%)
Title : Дублёр.(2013).BDRip.1080p.[NoLimits-Team]
Writing library : x264 core 129 r2230 1cffe9f
Encoding settings : cabac=1 / ref=4 / deblock=1:0:0 / analyse=0x3:0x133 / me=umh / subme=11 / psy=1 / psy_rd=1.00:0.00 / mixed_ref=1 / me_range=32 / chroma_me=1 / trellis=2 / 8x8dct=1 / cqm=0 / deadzone=21,11 / fast_pskip=0 / chroma_qp_offset=-2 / threads=9 / lookahead_threads=1 / sliced_threads=0 / nr=0 / decimate=1 / interlaced=0 / bluray_compat=0 / constrained_intra=0 / bframes=8 / b_pyramid=2 / b_adapt=2 / b_bias=0 / direct=3 / weightb=1 / open_gop=0 / weightp=2 / keyint=240 / keyint_min=24 / scenecut=40 / intra_refresh=0 / rc_lookahead=60 / rc=2pass / mbtree=1 / bitrate=7098 / ratetol=1.0 / qcomp=0.60 / qpmin=0 / qpmax=69 / qpstep=4 / cplxblur=20.0 / qblur=0.5 / ip_ratio=1.40 / aq=1:1.00
Language : Russian
Default : Yes
Forced : No

Audio
ID : 2
Format : AC-3
Format/Info : Audio Coding 3
Mode extension : CM (complete main)
Format settings, Endianness : Big
Codec ID : A_AC3
Duration : 1h 23mn
Bit rate mode : Constant
Bit rate : 384 Kbps
Channel(s) : 6 channels
Channel positions : Front: L C R, Side: L R, LFE
Sampling rate : 48.0 KHz
Bit depth : 16 bits
Compression mode : Lossy
Stream size : 230 MiB (5%)
Title : Оригинал
Language : Russian
Default : Yes
Forced : No

Menu
00:00:00.000 : en:00:00:00.000
00:06:00.375 : en:00:06:00.375
00:13:55.833 : en:00:13:55.833
00:22:29.875 : en:00:22:29.875
00:27:09.667 : en:00:27:09.667
00:36:01.042 : en:00:36:01.042
00:42:06.667 : en:00:42:06.667
00:50:57.042 : en:00:50:57.042
01:00:46.458 : en:01:00:46.458
01:05:38.167 : en:01:05:38.167
01:10:03.708 : en:01:10:03.708
01:20:13.292 : en:01:20:13.292



   Похожие торренты   Торрент   Размер 
В этой теме нет новых непрочитанных сообщений. 21 и больше / 21 & Over (2013) BDRip 1080p от NoLimits-Team

69 | 8

4.37 ГБ

В этой теме нет новых непрочитанных сообщений. Обливион / Oblivion (2013) BDRip 1080p от NoLimits-Team

6 | 4

7.95 ГБ

В этой теме нет новых непрочитанных сообщений. Мёбиус / Möbius (2013) BDRip 1080p от NoLimits-Team

1 | 1

7.93 ГБ

В этой теме нет новых непрочитанных сообщений. Гостья / The Host (2013) BDRip 1080p от NoLimits-Team

13 | 3

7.95 ГБ

В этой теме нет новых непрочитанных сообщений. Экзамен для двоих / Admission (2013) BDRip 1080p от NoLimits-Team

63 | 3

7.76 ГБ

В этой теме нет новых непрочитанных сообщений. Дублёр (2013) Blu-Ray 1080p

9 | 3

14.39 ГБ

В этой теме нет новых непрочитанных сообщений. Дублёр (2013) Blu-Ray Remux 1080p

12 | 4

12.65 ГБ




Вы не можете начинать темы
Вы не можете отвечать на сообщения
Вы не можете редактировать свои сообщения
Вы не можете удалять свои сообщения
Вы не можете добавлять вложения

Перейти:  
Для Мосгорсуда, Роскомнадзора и рекламодателей: mosgorsud-torrent[собачка]yandex.ru
 Вход
ppkBB3cker v.2 © 2008-2014 @ PPK
[ Time : 0.040s | 14 Queries | GZIP : Off ]

Торрент трекер RUTOR.IN, Не можете зайти на rutor.org? Какой новый адрес рутор? Какое зеркало рутор? Не работает rutor.org и зеркала? Тогда наш торрент специально для вас. Rutor.in неофициальное зеркало rutor. В случае если у Вас заблокирован rutor или вдруг Вы не можете на него зайти, то Вы без труда сможете скачать бесплатно и без рекламы последние новинки кино, игр, сериалов и прочего у нас, на Rutor.in. Не нужно использовать прокси, чтобы зайти на рутор, достаточно воспользоваться нашим ресурсом. Все новые фильмы, игры, сериалы, книги и музыка за 2013 и 2014 годы через торрент бесплатно. Скачивайте фильмы в хорошем качестве, игры для пк, xbox, playstation без регистрации. У нас вы найдете новые Зарубежные сериалы и Русские сериалы 2013, 2014, 2015 годов. Оставайтесь с нами, качайте любимые фильмы, игры, сериалы, книги и музыку.