img image001 image001 image001 image001 image001 image001 image001 image001 image001 image001 image001 image001 image001 image001 image001

Planets Sun Sun Sun
Статистика раздачи
Автор: Снежана | Размер: 2.18 ГБ | Добавлен: 24 июл 2013
Раздают: 174    Качают: 4
Скачать торрент
Скачать торрент
Описание торрента

СообщениеДобавлено: 24 июл 2013 

#77
Страна: СССР
Производство: Ленфильм
Жанр: драма
Год выпуска: 1964
Продолжительность: 02:22:42 (01:11:38+01:11:04)

Перевод: не требуется
Оригинальная аудиодорожка: русский
Cубтитры: нет

Режиссер: Григорий Козинцев

В ролях: Иннокентий Смоктуновский, Анастасия Вертинская, Иван Дмитриев, Вадим Медведев, Юрий Толубеев, Виктор Колпаков, Эльза Радзиня, Рейн Арен, Владимир Эренберг, Михаил Названов, Степан Олексенко, Александр Чекаевский, Антс Лаутэр, Юрий Беркун...

Описание: Фильм этот — попытка современного прочтения шекспировской трагедии. За всю историю Эльсинора, мрачного замка, хранящего тайну не одного преступления, Гамлет, быть может, первый человек, который без прежней легкости и уверенности в своей правоте берется за оружие, чтобы отомстить. Он — первый мыслитель в ряду воинов. Мысль его выше действия, яснее и точнее поступков. Постановщика фильма привлекают действия Гамлета. Композитор Д. Шостакович остается сторонником мысли Гамлета. Героизм размышления, героизм понимания — вот что воплощает музыка композитора. Музыкальная тема гамлетовского сомнения в фильме становится важнейшей. Она звучит неоднократно: озвучивает монолог «Быть или не быть», возникает в эпизоде с войсками Фортинбраса и в финальном поединке. Свое прочтение дает режиссер и образу Офелии. Она предстает на экране марионеткой, красивой куклой. Заученны ее движения, словно бы она действует под гипнозом: рука направо, шаг вперед, поворот. Шостакович присоединяется к такой трактовке. Ее танец и в музыке — танец заводной куклы, танец балерины с музыкальной шкатулки. Казалось бы, в экспозиции заключен приговор. Но композитор убежден: чувство Гамлета к Офелии не было ошибкой. Девушка подавлена страшным миром интриг и злодейств, пытается быть послушной отцу, выполнять чужие приказы. Сама гибель Офелии для композитора — ее спасение и приговор обществу, запутавшему ее в своих интригах. И над водой, этой своеобразной «гробницей Офелии», звучит мелодия огромной впечатляющей силы и любви. Композитор не скрывает своего авторского отношения к представленному на экране. Он судит Клавдия и Гертруду, симпатизирует актерам, понимает драму Офелии. Он находит в Гамлете И. Смоктуновского своего героя, заряжает интонацией актера свою музыку. Медленно движется процессия, провожающая Гамлета в последний путь. Звучит траурный марш. Убит герой, чужой среди современников и близкий всем грядущим поколениям. Это грандиозный марш-плач, открывающий дорогу в бессмертие. Полемика режиссера и композитора окончена. В этой точке они солидарны. И не случайно Г. Козинцев позволил композитору иметь свою точку зрения, свою позицию. Гамлет — наш современник — рождался на пересечении разных пониманий классического образа и потому становился действительно современным: героем действия и героем мысли...





Полная реставрация изображения и звука. Компания "Крупный План"

Исходник: DVD9 R5
Тип релиза: DVDRip-AVC
Контейнер: MKV

Видео: 712x438 (2.35:1), 25 fps, H264 ~ 1739 kbps avg, 0.223 bit/pixel
Аудио: 48 kHz, Dolby AC3 5.1, 448 kbps

Раздача от:
Общее
Полное имя : Gamlet.1964.DVDRip-AVC_[Youtracker]_by_AVP StudioGamlet.1964.DVDRip-AVC.mkv
Формат : Matroska
Версия формата : Version 2
Размер файла : 1,09 Гбайт
Продолжительность : 1 ч. 11 м.
Общий поток : 2189 Кбит/сек
Дата кодирования : UTC 2013-02-04 22:53:06
Программа кодирования : mkvmerge v5.0.1 ('Es ist Sommer') built on Nov 6 2011 16:23:40
Библиотека кодирования : libebml v1.2.2 + libmatroska v1.3.0

Видео
Идентификатор : 1
Формат : AVC
Формат/Информация : Advanced Video Codec
Профиль формата : High@L4.1
Параметр CABAC формата : Да
Параметр ReFrames формата : 11 кадров
Идентификатор кодека : V_MPEG4/ISO/AVC
Продолжительность : 1 ч. 11 м.
Битрейт : 1739 Кбит/сек
Ширина : 712 пикселей
Высота : 438 пикселей
Соотношение сторон : 2,35:1
Соотношение сторон в оригинале : 2,35:1
Частота кадров : 25,000 кадров/сек
Цветовое пространство : YUV
Субдискретизация насыщенности : 4:2:0
Битовая глубина : 8 бит
Тип развёртки : Прогрессивная
Бит/(Пиксели*Кадры) : 0.223
Размер потока : 863 Мбайт (78%)
Библиотека кодирования : x264 core 119 r2106 07efeb4
Настройки программы : cabac=1 / ref=11 / deblock=1:-2:-1 / analyse=0x3:0x113 / me=umh / subme=9 / psy=1 / psy_rd=1.00:0.20 / mixed_ref=1 / me_range=32 / chroma_me=1 / trellis=1 / 8x8dct=1 / cqm=0 / deadzone=21,11 / fast_pskip=0 / chroma_qp_offset=-3 / threads=3 / sliced_threads=0 / nr=0 / decimate=0 / interlaced=0 / bluray_compat=0 / constrained_intra=0 / bframes=8 / b_pyramid=2 / b_adapt=2 / b_bias=0 / direct=3 / weightb=1 / open_gop=0 / weightp=2 / keyint=250 / keyint_min=25 / scenecut=40 / intra_refresh=0 / rc_lookahead=60 / rc=2pass / mbtree=1 / bitrate=1739 / ratetol=1.0 / qcomp=0.60 / qpmin=0 / qpmax=69 / qpstep=4 / cplxblur=20.0 / qblur=0.5 / ip_ratio=1.40 / aq=1:1.00
Default : Да
Forced : Нет

Аудио
Идентификатор : 2
Формат : AC-3
Формат/Информация : Audio Coding 3
Расширение режима : CM (complete main)
Идентификатор кодека : A_AC3
Продолжительность : 1 ч. 11 м.
Вид битрейта : Постоянный
Битрейт : 448 Кбит/сек
Каналы : 6 каналов
Расположение каналов : Front: L C R, Side: L R, LFE
Частота : 48,0 КГц
Битовая глубина : 16 бит
Метод сжатия : С потерями
Размер потока : 228 Мбайт (20%)
Default : Да
Forced : Нет





   Похожие торренты   Торрент   Размер 
В этой теме нет новых непрочитанных сообщений. Гамлет (1964) DVDRip от Youtracker

71 | 15

1.45 ГБ

В этой теме нет новых непрочитанных сообщений. Гамлет (1964) DVD5 от Youtracker | Сжатый

14 | 2

4.37 ГБ

В этой теме нет новых непрочитанных сообщений. Гамлет (1964) DVD9 | Реставрация

156 | 11

6.51 ГБ

В этой теме нет новых непрочитанных сообщений. Ко мне, Мухтар! (1964) DVDRip от Youtracker

10 | 9

744.28 МБ

В этой теме нет новых непрочитанных сообщений. Ко мне, Мухтар! (1964) DVDRip-AVC от Youtracker

174 | 43

1.45 ГБ

В этой теме нет новых непрочитанных сообщений. Жаворонок (1964) DVDRip от Youtracker

15 | 2

745.08 МБ

В этой теме нет новых непрочитанных сообщений. Жаворонок (1964) DVDRip от Youtracker

20 | 7

1.46 ГБ




Вы не можете начинать темы
Вы не можете отвечать на сообщения
Вы не можете редактировать свои сообщения
Вы не можете удалять свои сообщения
Вы не можете добавлять вложения

Перейти:  
Для Мосгорсуда, Роскомнадзора и рекламодателей: mosgorsud-torrent[собачка]yandex.ru
 Вход
ppkBB3cker v.2 © 2008-2014 @ PPK
[ Time : 0.041s | 14 Queries | GZIP : Off ]

Торрент трекер RUTOR.IN, Не можете зайти на rutor.org? Какой новый адрес рутор? Какое зеркало рутор? Не работает rutor.org и зеркала? Тогда наш торрент специально для вас. Rutor.in неофициальное зеркало rutor. В случае если у Вас заблокирован rutor или вдруг Вы не можете на него зайти, то Вы без труда сможете скачать бесплатно и без рекламы последние новинки кино, игр, сериалов и прочего у нас, на Rutor.in. Не нужно использовать прокси, чтобы зайти на рутор, достаточно воспользоваться нашим ресурсом. Все новые фильмы, игры, сериалы, книги и музыка за 2013 и 2014 годы через торрент бесплатно. Скачивайте фильмы в хорошем качестве, игры для пк, xbox, playstation без регистрации. У нас вы найдете новые Зарубежные сериалы и Русские сериалы 2013, 2014, 2015 годов. Оставайтесь с нами, качайте любимые фильмы, игры, сериалы, книги и музыку.