img image001 image001 image001 image001 image001 image001 image001 image001 image001 image001 image001 image001 image001 image001 image001

Planets Sun Sun Sun
Статистика раздачи
Автор: Снежана | Размер: 1.46 ГБ | Добавлен: 24 июл 2013
Раздают: 11    Качают: 5
Скачать торрент
Скачать торрент
Описание торрента

СообщениеДобавлено: 24 июл 2013 

#77
Страна: СССР
Производство: ТО Экран
Жанр: комедия
Год выпуска: 1978
Продолжительность: 02:34:04 (01:22:33 + 01:11:31)

Перевод: не требуется
Оригинальная аудиодорожка: русский
Cубтитры: нет

Режиссер: Олег Табаков, Виктор Храмов, Питер Джеймс

В ролях: Анастасия Вертинская, Марина Неелова, Юрий Богатырев, Олег Табаков, Петр Щербаков, Авангард Леонтьев, Константин Райкин, Нина Дорошина, Олег Шкловский, Борис Сморчков, Лариса Соловьева, Рогволд Суховерко, Валерий Хлевинский, Владлен Давыдов, Алексей Кутузов, Сергей Сазонтьев, Владимир Поглазов...

Описание: Экранизация спектакля `Двенадцатая ночь` Уильяма Шекспира в постановке московского театра `Современник`
Главный режиссер Шеффилдского драматического театра Питер Джеймс получил широкую известность в Ливерпуле, где произвел эксперимент с битлами, обучив их сценическому действию. В театре «Современник» он поставил известную шекспировскую комедию, построенную на сходстве близнецов - юноши и девушки, переодетой в мужское платье. В спектакле задействованы звезды театра: Олег Табаков, Анастасия Вертинская, Авангард Леонтьев, Константин Райкин. Цезарио в исполнении Марины Нееловой – пожалуй, самый лучший из всех существующих на отечественной сцене. Постановку в «Современнике» английский режиссер считает одной из лучших своих работ. Это Шекспир, говорит он, но это «не музейная постановка»...





Исходник: 2хDVD5 R5
Тип релиза: DVDRip
Контейнер: AVI

Видео: 688x512 (4:3), 25 fps, XviD ~ 1216 kbps avg, 0.138 bit/pixel
Аудио: 48 kHz, MP3 2.0, 128 kbps

Раздача от:
Общее
Полное имя : Dvenadcataja.noch'.1978.DVDRip_[Youtracker]_by_AVP StudioDvenadcataja.noch'.1978.DVDRip.avi
Формат : AVI
Формат/Информация : Audio Video Interleave
Размер файла : 799 Мбайт
Продолжительность : 1 ч. 22 м.
Общий поток : 1354 Кбит/сек
Программа кодирования : VirtualDubMod 1.5.10.3 | www.virtualdub-fr.org || (build 2550/release)
Библиотека кодирования : VirtualDubMod build 2550/release

Видео
Идентификатор : 0
Формат : MPEG-4 Visual
Профиль формата : Advanced Simple@L5
Параметр BVOP формата : 1
Параметр QPel формата : Нет
Параметр GMC формата : Без точки перехода
Параметр матрицы формата : Выборочная
Идентификатор кодека : XVID
Идентификатор кодека/Подсказка : XviD
Продолжительность : 1 ч. 22 м.
Битрейт : 1216 Кбит/сек
Ширина : 688 пикселей
Высота : 512 пикселей
Соотношение сторон : 4:3
Частота кадров : 25,000 кадров/сек
Цветовое пространство : YUV
Субдискретизация насыщенности : 4:2:0
Битовая глубина : 8 бит
Тип развёртки : Прогрессивная
Метод сжатия : С потерями
Бит/(Пиксели*Кадры) : 0.138
Размер потока : 718 Мбайт (90%)
Библиотека кодирования : XviD 65

Аудио
Идентификатор : 1
Формат : MPEG Audio
Версия формата : Version 1
Профиль формата : Layer 3
Идентификатор кодека : 55
Идентификатор кодека/Подсказка : MP3
Продолжительность : 1 ч. 22 м.
Вид битрейта : Постоянный
Битрейт : 128 Кбит/сек
Каналы : 2 канала
Частота : 48,0 КГц
Метод сжатия : С потерями
Размер потока : 75,6 Мбайт (9%)
Выравнивание : Соединение по промежуткам
Продолжительность промежутка : 40 мс. (1,00 видеокадр)
Время предзагрузки промежутка : 504 мс.
Библиотека кодирования : L3.99r
Настройки программы : -m s -V 4 -q 2 -lowpass 17 -b 128







   Похожие торренты   Торрент   Размер 
В этой теме нет новых непрочитанных сообщений. Двенадцатая ночь (1978) DVDRip-AVC от Youtracker

35 | 7

2.19 ГБ

В этой теме нет новых непрочитанных сообщений. Двенадцатая ночь (1978) DVDRip-AVC от старпёра

1 | 5

1.82 ГБ

В этой теме нет новых непрочитанных сообщений. Двенадцатая ночь (1955) DVDRip от Youtracker

50 | 6

1.46 ГБ

В этой теме нет новых непрочитанных сообщений. Двенадцатая ночь (1955) DVDRip-AVC от Youtracker

64 | 30

1.46 ГБ

В этой теме нет новых непрочитанных сообщений. Двенадцатая ночь (1955) DVDRip от Youtracker

11 | 6

743.88 МБ

В этой теме нет новых непрочитанных сообщений. Двенадцатая ночь (1955) DVD5 R5 от Youtracker

9 | 8

4.23 ГБ

В этой теме нет новых непрочитанных сообщений. Двенадцатая ночь или что угодно / Twelfth Night or What You Will (1996) DVDRip | P

45 | 7

2.06 ГБ




Вы не можете начинать темы
Вы не можете отвечать на сообщения
Вы не можете редактировать свои сообщения
Вы не можете удалять свои сообщения
Вы не можете добавлять вложения

Перейти:  
Для Мосгорсуда, Роскомнадзора и рекламодателей: mosgorsud-torrent[собачка]yandex.ru
 Вход
ppkBB3cker v.2 © 2008-2014 @ PPK
[ Time : 0.056s | 15 Queries | GZIP : On ]

Торрент трекер RUTOR.IN, Не можете зайти на rutor.org? Какой новый адрес рутор? Какое зеркало рутор? Не работает rutor.org и зеркала? Тогда наш торрент специально для вас. Rutor.in неофициальное зеркало rutor. В случае если у Вас заблокирован rutor или вдруг Вы не можете на него зайти, то Вы без труда сможете скачать бесплатно и без рекламы последние новинки кино, игр, сериалов и прочего у нас, на Rutor.in. Не нужно использовать прокси, чтобы зайти на рутор, достаточно воспользоваться нашим ресурсом. Все новые фильмы, игры, сериалы, книги и музыка за 2013 и 2014 годы через торрент бесплатно. Скачивайте фильмы в хорошем качестве, игры для пк, xbox, playstation без регистрации. У нас вы найдете новые Зарубежные сериалы и Русские сериалы 2013, 2014, 2015 годов. Оставайтесь с нами, качайте любимые фильмы, игры, сериалы, книги и музыку.
cron