img image001 image001 image001 image001 image001 image001 image001 image001 image001 image001 image001 image001 image001 image001 image001

Planets Sun Sun Sun
Статистика раздачи
Автор: Снежана | Размер: 2.19 ГБ | Добавлен: 24 июл 2013
Раздают: 35    Качают: 7
Скачать торрент
Скачать торрент
Описание торрента

СообщениеДобавлено: 24 июл 2013 

#77
Страна: СССР
Производство: ТО Экран
Жанр: комедия
Год выпуска: 1978
Продолжительность: 02:34:04 (01:22:33 + 01:11:31)

Перевод: не требуется
Оригинальная аудиодорожка: русский
Cубтитры: нет

Режиссер: Олег Табаков, Виктор Храмов, Питер Джеймс

В ролях: Анастасия Вертинская, Марина Неелова, Юрий Богатырев, Олег Табаков, Петр Щербаков, Авангард Леонтьев, Константин Райкин, Нина Дорошина, Олег Шкловский, Борис Сморчков, Лариса Соловьева, Рогволд Суховерко, Валерий Хлевинский, Владлен Давыдов, Алексей Кутузов, Сергей Сазонтьев, Владимир Поглазов...

Описание: Экранизация спектакля `Двенадцатая ночь` Уильяма Шекспира в постановке московского театра `Современник`
Главный режиссер Шеффилдского драматического театра Питер Джеймс получил широкую известность в Ливерпуле, где произвел эксперимент с битлами, обучив их сценическому действию. В театре «Современник» он поставил известную шекспировскую комедию, построенную на сходстве близнецов - юноши и девушки, переодетой в мужское платье. В спектакле задействованы звезды театра: Олег Табаков, Анастасия Вертинская, Авангард Леонтьев, Константин Райкин. Цезарио в исполнении Марины Нееловой – пожалуй, самый лучший из всех существующих на отечественной сцене. Постановку в «Современнике» английский режиссер считает одной из лучших своих работ. Это Шекспир, говорит он, но это «не музейная постановка»...





Исходник: 2хDVD5 R5
Тип релиза: DVDRip-AVC
Контейнер: MKV

Видео: 720x572@768x572 (4:3), 25 fps, H264 ~ 1837 kbps avg, 0.178 bit/pixel
Аудио: 48 kHz, AC3 2.0, 192 kbps

Раздача от:
Общее
Полное имя : Dvenadcataja.noch'.1978.DVDRip-AVC_[Youtracker]_by_AVP StudioDvenadcataja.noch'.1978.DVDRip-AVC.mkv
Формат : Matroska
Версия формата : Version 2
Размер файла : 1,17 Гбайт
Продолжительность : 1 ч. 22 м.
Общий поток : 2031 Кбит/сек
Дата кодирования : UTC 2013-02-07 01:16:00
Программа кодирования : mkvmerge v5.0.1 ('Es ist Sommer') built on Nov 6 2011 16:23:40
Библиотека кодирования : libebml v1.2.2 + libmatroska v1.3.0

Видео
Идентификатор : 1
Формат : AVC
Формат/Информация : Advanced Video Codec
Профиль формата : High@L4.1
Параметр CABAC формата : Да
Параметр ReFrames формата : 11 кадров
Идентификатор кодека : V_MPEG4/ISO/AVC
Продолжительность : 1 ч. 22 м.
Битрейт : 1837 Кбит/сек
Ширина : 720 пикселей
Высота : 572 пикселя
Соотношение сторон : 4:3
Частота кадров : 25,000 кадров/сек
Цветовое пространство : YUV
Субдискретизация насыщенности : 4:2:0
Битовая глубина : 8 бит
Тип развёртки : Прогрессивная
Бит/(Пиксели*Кадры) : 0.178
Размер потока : 1,04 Гбайт (89%)
Библиотека кодирования : x264 core 119 r2106 07efeb4
Настройки программы : cabac=1 / ref=11 / deblock=1:-2:-1 / analyse=0x3:0x113 / me=umh / subme=9 / psy=1 / psy_rd=1.00:0.20 / mixed_ref=1 / me_range=32 / chroma_me=1 / trellis=1 / 8x8dct=1 / cqm=0 / deadzone=21,11 / fast_pskip=0 / chroma_qp_offset=-3 / threads=3 / sliced_threads=0 / nr=0 / decimate=0 / interlaced=0 / bluray_compat=0 / constrained_intra=0 / bframes=8 / b_pyramid=2 / b_adapt=2 / b_bias=0 / direct=3 / weightb=1 / open_gop=0 / weightp=2 / keyint=250 / keyint_min=25 / scenecut=40 / intra_refresh=0 / rc_lookahead=60 / rc=2pass / mbtree=1 / bitrate=1837 / ratetol=1.0 / qcomp=0.60 / qpmin=0 / qpmax=69 / qpstep=4 / cplxblur=20.0 / qblur=0.5 / ip_ratio=1.40 / aq=1:1.00
Default : Да
Forced : Нет

Аудио
Идентификатор : 2
Формат : AC-3
Формат/Информация : Audio Coding 3
Расширение режима : CM (complete main)
Идентификатор кодека : A_AC3
Продолжительность : 1 ч. 22 м.
Вид битрейта : Постоянный
Битрейт : 192 Кбит/сек
Каналы : 2 канала
Расположение каналов : Front: L R
Частота : 48,0 КГц
Битовая глубина : 16 бит
Метод сжатия : С потерями
Размер потока : 113 Мбайт (9%)
Default : Да
Forced : Нет







   Похожие торренты   Торрент   Размер 
В этой теме нет новых непрочитанных сообщений. Двенадцатая ночь (1978) DVDRip от Youtracker

11 | 5

1.46 ГБ

В этой теме нет новых непрочитанных сообщений. Двенадцатая ночь (1978) DVDRip-AVC от старпёра

1 | 5

1.82 ГБ

В этой теме нет новых непрочитанных сообщений. Двенадцатая ночь (1955) DVDRip от Youtracker

50 | 6

1.46 ГБ

В этой теме нет новых непрочитанных сообщений. Двенадцатая ночь (1955) DVDRip от Youtracker

11 | 6

743.88 МБ

В этой теме нет новых непрочитанных сообщений. Двенадцатая ночь (1955) DVDRip-AVC от Youtracker

64 | 30

1.46 ГБ

В этой теме нет новых непрочитанных сообщений. Двенадцатая ночь (1955) DVD5 R5 от Youtracker

9 | 8

4.23 ГБ

В этой теме нет новых непрочитанных сообщений. Двенадцатая ночь или что угодно / Twelfth Night or What You Will (1996) DVDRip | P

45 | 7

2.06 ГБ




Вы не можете начинать темы
Вы не можете отвечать на сообщения
Вы не можете редактировать свои сообщения
Вы не можете удалять свои сообщения
Вы не можете добавлять вложения

Перейти:  
Для Мосгорсуда, Роскомнадзора и рекламодателей: mosgorsud-torrent[собачка]yandex.ru
 Вход
ppkBB3cker v.2 © 2008-2014 @ PPK
[ Time : 0.057s | 15 Queries | GZIP : Off ]

Торрент трекер RUTOR.IN, Не можете зайти на rutor.org? Какой новый адрес рутор? Какое зеркало рутор? Не работает rutor.org и зеркала? Тогда наш торрент специально для вас. Rutor.in неофициальное зеркало rutor. В случае если у Вас заблокирован rutor или вдруг Вы не можете на него зайти, то Вы без труда сможете скачать бесплатно и без рекламы последние новинки кино, игр, сериалов и прочего у нас, на Rutor.in. Не нужно использовать прокси, чтобы зайти на рутор, достаточно воспользоваться нашим ресурсом. Все новые фильмы, игры, сериалы, книги и музыка за 2013 и 2014 годы через торрент бесплатно. Скачивайте фильмы в хорошем качестве, игры для пк, xbox, playstation без регистрации. У нас вы найдете новые Зарубежные сериалы и Русские сериалы 2013, 2014, 2015 годов. Оставайтесь с нами, качайте любимые фильмы, игры, сериалы, книги и музыку.