img image001 image001 image001 image001 image001 image001 image001 image001 image001 image001 image001 image001 image001 image001 image001

Planets Sun Sun Sun
Статистика раздачи
Автор: Снежана | Размер: 2.36 ГБ | Добавлен: 24 июл 2013
Раздают: 48    Качают: 3
Скачать торрент
Скачать торрент
Описание торрента

СообщениеДобавлено: 24 июл 2013 

#77

Информация о фильме
Название: Человек, который знал всё
Год выхода: 2009
Жанр: Драма
Режиссер: Владимир Мирзоев
В ролях: Егор Бероев, Екатерина Гусева, Егор Пазенко, Татьяна Лютаева, Максим Суханов, Ольга Лысак, Игорь Гаспарян, Николай Кириченко, Алексей Завьялов, Татьяна Пискарева

О фильме:
Александр Безукладников в результате попытки самоубийства вдруг обретает феноменальную способность мгновенно получить ответ на любой вопрос. Скромный и безобидный, он становится лакомой дичью для всех — женщин, криминальных авторитетов и даже международных спецслужб. Одни пытаются его использовать, другие уничтожить. Но «маленький человек» продолжает жить по законам своей собственной совести…

Страна: Россия
Студия: Леан-М
Продолжительность: 01:43:10
Перевод: Русский

Файл
Кодек: h.264
Качество: DVDRip-AVC
Видео: MPEG-4 AVC, 2835 Кбит/с, 1000x432, 25.000 кадр/с
Звук: АС3, 6 ch, 448 Кбит/с

Полное имя : Chelovek.kotorij.znal.vsyo.2009.x264.DVDRip.(AVC).mkv
Формат : Matroska
Версия формата : Version 4 / Version 2
Размер файла : 2,36 Гбайт
Продолжительность : 1 ч. 43 м.
Общий поток : 3269 Кбит/сек
Название фильма : Человек, который знал всё [2009] -=DVDRip (AVC)=-
Дата кодирования : UTC 2013-01-30 09:27:33
Программа кодирования : mkvmerge v6.0.0 ('Coming Up For Air') built on Jan 20 2013 09:52:00
Библиотека кодирования : libebml v1.3.0 + libmatroska v1.4.0

Видео
Идентификатор : 1
Формат : AVC
Формат/Информация : Advanced Video Codec
Профиль формата : High@L4.1
Параметр CABAC формата : Да
Параметр ReFrames формата : 8 кадров
Идентификатор кодека : V_MPEG4/ISO/AVC
Продолжительность : 1 ч. 43 м.
Битрейт : 2835 Кбит/сек
Ширина : 1000 пикселей
Высота : 432 пикселя
Соотношение сторон : 2,35:1
Режим частоты кадров : Постоянный
Частота кадров : 25,000 кадров/сек
Цветовое пространство : YUV
Субдискретизация насыщенности : 4:2:0
Битовая глубина : 8 бит
Тип развёртки : Прогрессивная
Бит/(Пиксели*Кадры) : 0.262
Размер потока : 1,99 Гбайт (84%)
Библиотека кодирования : x264 core 129 r2245 bc13772
Настройки программы : cabac=1 / ref=8 / deblock=1:-3:-3 / analyse=0x3:0x113 / me=umh / subme=11 / psy=1 / psy_rd=1.00:0.20 / mixed_ref=1 / me_range=32 / chroma_me=1 / trellis=2 / 8x8dct=1 / cqm=0 / deadzone=21,11 / fast_pskip=0 / chroma_qp_offset=-3 / threads=4 / lookahead_threads=1 / sliced_threads=0 / nr=0 / decimate=0 / interlaced=0 / bluray_compat=0 / constrained_intra=0 / bframes=10 / b_pyramid=2 / b_adapt=2 / b_bias=0 / direct=3 / weightb=1 / open_gop=0 / weightp=2 / keyint=250 / keyint_min=25 / scenecut=40 / intra_refresh=0 / rc_lookahead=40 / rc=2pass / mbtree=0 / bitrate=2835 / ratetol=1.0 / qcomp=0.60 / qpmin=0 / qpmax=69 / qpstep=4 / cplxblur=20.0 / qblur=0.5 / vbv_maxrate=50000 / vbv_bufsize=50000 / nal_hrd=none / ip_ratio=1.40 / pb_ratio=1.30 / aq=1:1.00
Язык : Russian
Default : Да
Forced : Да

Аудио
Идентификатор : 2
Формат : AC-3
Формат/Информация : Audio Coding 3
Расширение режима : CM (complete main)
Параметр Endianness формата : Big
Идентификатор кодека : A_AC3
Продолжительность : 1 ч. 43 м.
Вид битрейта : Постоянный
Битрейт : 448 Кбит/сек
Каналы : 6 каналов
Расположение каналов : Front: L C R, Side: L R, LFE
Частота : 48,0 КГц
Битовая глубина : 16 бит
Метод сжатия : С потерями
Размер потока : 331 Мбайт (14%)
Язык : Russian
Default : Да
Forced : Да

Меню
00:00:00.000 : :Chapter 01
00:12:24.280 : :Chapter 02
00:18:27.040 : :Chapter 03
00:21:10.120 : :Chapter 04
00:26:33.520 : :Chapter 05
00:31:15.200 : :Chapter 06
00:43:23.920 : :Chapter 07
00:54:06.080 : :Chapter 08
01:06:26.320 : :Chapter 09
01:24:28.640 : :Chapter 10
01:29:20.080 : :Chapter 11
01:39:37.360 : :Chapter 12

x264 [info]: frame I:1186 Avg QP:17.35 size: 56143
x264 [info]: frame P:33015 Avg QP:19.52 size: 27125
x264 [info]: frame B:120550 Avg QP:21.67 size: 10114





Релиз от: 0ptimus



   Похожие торренты   Торрент   Размер 
В этой теме нет новых непрочитанных сообщений. Человек из стали / Man of Steel (2013) BDRip-AVC от 0ptimus | D, A

705 | 93

3.99 ГБ

В этой теме нет новых непрочитанных сообщений. Человек тьмы / Darkman (1990) BDRip-AVC от 0ptimus | D, A

262 | 22

2.54 ГБ

В этой теме нет новых непрочитанных сообщений. Железный человек 2 / Iron Man 2 (2010) BDRip-AVC от 0ptimus | D, A

68 | 7

3.55 ГБ

В этой теме нет новых непрочитанных сообщений. Человек в футляре, человек в пальто и человек во фраке (2005) DVDRip

36 | 7

1.46 ГБ

В этой теме нет новых непрочитанных сообщений. Серьёзный человек / A Serious Man (2009) DVDRip

2 | 1

1.37 ГБ

В этой теме нет новых непрочитанных сообщений. Человек у окна (2009) DVDRip

210 | 7

1.37 ГБ

В этой теме нет новых непрочитанных сообщений. Снежный человек (2009) DVDRip

5 | 7

698.85 МБ




Вы не можете начинать темы
Вы не можете отвечать на сообщения
Вы не можете редактировать свои сообщения
Вы не можете удалять свои сообщения
Вы не можете добавлять вложения

Перейти:  
Для Мосгорсуда, Роскомнадзора и рекламодателей: mosgorsud-torrent[собачка]yandex.ru
 Вход
ppkBB3cker v.2 © 2008-2014 @ PPK
[ Time : 0.019s | 16 Queries | GZIP : Off ]

Торрент трекер RUTOR.IN, Не можете зайти на rutor.org? Какой новый адрес рутор? Какое зеркало рутор? Не работает rutor.org и зеркала? Тогда наш торрент специально для вас. Rutor.in неофициальное зеркало rutor. В случае если у Вас заблокирован rutor или вдруг Вы не можете на него зайти, то Вы без труда сможете скачать бесплатно и без рекламы последние новинки кино, игр, сериалов и прочего у нас, на Rutor.in. Не нужно использовать прокси, чтобы зайти на рутор, достаточно воспользоваться нашим ресурсом. Все новые фильмы, игры, сериалы, книги и музыка за 2013 и 2014 годы через торрент бесплатно. Скачивайте фильмы в хорошем качестве, игры для пк, xbox, playstation без регистрации. У нас вы найдете новые Зарубежные сериалы и Русские сериалы 2013, 2014, 2015 годов. Оставайтесь с нами, качайте любимые фильмы, игры, сериалы, книги и музыку.