img image001 image001 image001 image001 image001 image001 image001 image001 image001 image001 image001 image001 image001 image001 image001

Planets Sun Sun Sun
Статистика раздачи
Автор: Снежана | Размер: 1.46 ГБ | Добавлен: 24 июл 2013
Раздают: 32    Качают: 12
Скачать торрент
Скачать торрент
Описание торрента

СообщениеДобавлено: 24 июл 2013 

#77

Информация о фильме
Название: Любовь с привилегиями
Год выхода: 1989
Жанр: драма, мелодрама
Режиссер: Владимир Кучинский
В ролях: Любовь Полищук, Вячеслав Тихонов, Олег Табаков, Лидия Федосеева-Шукшина, Игорь Волков, Петр Щербаков, Александр Феклистов, Светлана Жгун, Юрий Саранцев, Александра Назарова

О фильме:
СССР, конец 80-х. Бывший заместитель председателя Совмина Кожемякин приезжает отдыхать в Ялту. Встретить его на вокзале попросили Ирину, которая работает водителем автофургона. Случайное курортное знакомство неожиданно переросло в нечто большее. Ни разница в возрасте, ни в социальном положении не стали помехой. Ирина соглашается стать женой Кожемякина и переезжает в Москву.

Страна: СССР
Продолжительность: 02:06:49
Перевод: Не требуется

Файл
Кодек: XviD / MP3
Качество: SATRip
Видео: 688x512 (1.34:1), 25 fps, XviD build 63 ~1446 kbps avg, 0.16 bit/pixel
Звук: 48 kHz, AC3 Dolby Digital, 2/0 (L,R) ch, ~192 kbps

Общее
Полное имя : ...Любовь с привилегиями_1.46.avi
Формат : AVI
Формат/Информация : Audio Video Interleave
Размер файла : 1,46 Гбайт
Продолжительность : 2 ч. 6 м.
Общий поток : 1648 Кбит/сек
Программа кодирования : VirtualDubMod 1.5.10.3 | www.virtualdub-fr.org || (build 2550/release)
Библиотека кодирования : VirtualDubMod build 2550/release

Видео
Идентификатор : 0
Формат : MPEG-4 Visual
Профиль формата : Advanced Simple@L5
Параметр BVOP формата : 1
Параметр QPel формата : Нет
Параметр GMC формата : Без точки перехода
Параметр матрицы формата : Выборочная
Идентификатор кодека : XVID
Идентификатор кодека/Подсказка : XviD
Продолжительность : 2 ч. 6 м.
Битрейт : 1446 Кбит/сек
Ширина : 688 пикселей
Высота : 512 пикселей
Соотношение сторон : 4:3
Частота кадров : 25,000 кадров/сек
Цветовое пространство : YUV
Субдискретизация насыщенности : 4:2:0
Битовая глубина : 8 бит
Тип развёртки : Прогрессивная
Метод сжатия : С потерями
Бит/(Пиксели*Кадры) : 0.164
Размер потока : 1,28 Гбайт (88%)
Библиотека кодирования : XviD 63

Аудио
Идентификатор : 1
Формат : AC-3
Формат/Информация : Audio Coding 3
Расширение режима : CM (complete main)
Идентификатор кодека : 2000
Продолжительность : 2 ч. 6 м.
Вид битрейта : Постоянный
Битрейт : 192 Кбит/сек
Каналы : 2 канала
Расположение каналов : Front: L R
Частота : 48,0 КГц
Битовая глубина : 16 бит
Метод сжатия : С потерями
Размер потока : 174 Мбайт (12%)
Выравнивание : Разделение по промежуткам
Продолжительность промежутка : 40 мс. (1,00 видеокадр)
Время предзагрузки промежутка : 500 мс.

P.S. Киноверсия (короче телеверсии на 30 минут).



   Похожие торренты   Торрент   Размер 
В этой теме нет новых непрочитанных сообщений. Репортаж Дождя: Дом с привилегиями [04.10] (2016) WEBRip 720p

34 | 6

202.2 МБ

В этой теме нет новых непрочитанных сообщений. Любовь. Румянцева Любовь Григорьевна (2003) SATRip от AND01AND

0 | 1

364.72 МБ

В этой теме нет новых непрочитанных сообщений. Бронза: Обречённая любовь-2 / Bronze: Zetsuai Since 1989 [OVA] (1996) DVDRip-AVC | CactusTeam

8 | 4

977.97 МБ

В этой теме нет новых непрочитанных сообщений. Светлое будущее 3: Любовь и смерть в Сайгоне / Право на жизнь 3 / A Better Tomorrow 3 / Ying hung boon sik III (1989) BDRip от HQCLUB

7 | 2

2.18 ГБ

В этой теме нет новых непрочитанных сообщений. Любовь Привина и группа Nota Bene - Записи 1989-1990 годов (1990) FLAC

7 | 18

523.22 МБ

В этой теме нет новых непрочитанных сообщений. Все в порядке, это любовь / Просто это любовь / Ничего страшного, это любовь / It's Okay It's Love [01-16 из 16](2014) HDTVRip 720р | L2

5 | 34

18.51 ГБ

В этой теме нет новых непрочитанных сообщений. Не покидай (1989) SATRip

61 | 3

2.18 ГБ




Вы не можете начинать темы
Вы не можете отвечать на сообщения
Вы не можете редактировать свои сообщения
Вы не можете удалять свои сообщения
Вы не можете добавлять вложения

Перейти:  
Для Мосгорсуда, Роскомнадзора и рекламодателей: mosgorsud-torrent[собачка]yandex.ru
 Вход
ppkBB3cker v.2 © 2008-2014 @ PPK
[ Time : 4.723s | 14 Queries | GZIP : On ]

Торрент трекер RUTOR.IN, Не можете зайти на rutor.org? Какой новый адрес рутор? Какое зеркало рутор? Не работает rutor.org и зеркала? Тогда наш торрент специально для вас. Rutor.in неофициальное зеркало rutor. В случае если у Вас заблокирован rutor или вдруг Вы не можете на него зайти, то Вы без труда сможете скачать бесплатно и без рекламы последние новинки кино, игр, сериалов и прочего у нас, на Rutor.in. Не нужно использовать прокси, чтобы зайти на рутор, достаточно воспользоваться нашим ресурсом. Все новые фильмы, игры, сериалы, книги и музыка за 2013 и 2014 годы через торрент бесплатно. Скачивайте фильмы в хорошем качестве, игры для пк, xbox, playstation без регистрации. У нас вы найдете новые Зарубежные сериалы и Русские сериалы 2013, 2014, 2015 годов. Оставайтесь с нами, качайте любимые фильмы, игры, сериалы, книги и музыку.