img image001 image001 image001 image001 image001 image001 image001 image001 image001 image001 image001 image001 image001 image001 image001

Planets Sun Sun Sun
Статистика раздачи
Автор: Снежана | Размер: 2.19 ГБ | Добавлен: 24 июл 2013
Раздают: 49    Качают: 5
Скачать торрент
Скачать торрент
Описание торрента

СообщениеДобавлено: 24 июл 2013 

#77
Страна: Россия
Жанр: комедия
Год выпуска: 2012
Продолжительность: 03:17:03 (серия ~ 00:50:00 минут)

Перевод: не требуется
Оригинальная аудиодорожка: русский
Cубтитры: нет

Режиссер: Феликс Герчиков

В ролях: Мария Порошина, Даниил Спиваковский, Луиза-Габриэла Бровина, Сергей Чирков, Галина Петрова, Евгений Воскресенский, Нонна Гришаева, Владимир Стержаков, Татьяна Кравченко, Павел Прилучный, Игорь Письменный, Владимир Добрынин, Алина Кизиярова, Николай Сахаров, Ксения Непотребная...

Описание:
С появлением молодого обаятельного мошенника Гарика в тихом провинциальном городке начинается настоящий Новогодний переполох с участием семейства Шишкиных, их родственников и коллег, деда Мороза и Снегурочки… и даже настоящего страуса...





Исходник: DVD9 R5
Тип релиза: DVDRip
Контейнер: AVI

Видео: 720x400 (16:9), 25 fps, XviD ~ 1387 kbps avg, 0.193 bit/pixel
Аудио: 48 kHz, Dolby AC3 2.0, 192 kbps

Раздача от:
Общее
Полное имя : Novogodnij.perepoloh.2012.DVDRip.avi
Формат : AVI
Формат/Информация : Audio Video Interleave
Размер файла : 566 Мбайт
Продолжительность : 49 м.
Общий поток : 1589 Кбит/сек
Программа кодирования : VirtualDubMod 1.5.10.3 | www.virtualdub-fr.org || (build 2550/release)
Библиотека кодирования : VirtualDubMod build 2550/release

Видео
Идентификатор : 0
Формат : MPEG-4 Visual
Профиль формата : Advanced Simple@L5
Параметр BVOP формата : 1
Параметр QPel формата : Нет
Параметр GMC формата : Без точки перехода
Параметр матрицы формата : Выборочная
Идентификатор кодека : XVID
Идентификатор кодека/Подсказка : XviD
Продолжительность : 49 м.
Битрейт : 1387 Кбит/сек
Ширина : 720 пикселей
Высота : 400 пикселей
Соотношение сторон : 16:9
Частота кадров : 25,000 кадров/сек
Цветовое пространство : YUV
Субдискретизация насыщенности : 4:2:0
Битовая глубина : 8 бит
Тип развёртки : Прогрессивная
Метод сжатия : С потерями
Бит/(Пиксели*Кадры) : 0.193
Размер потока : 494 Мбайт (87%)
Библиотека кодирования : XviD 65

Аудио
Идентификатор : 1
Формат : AC-3
Формат/Информация : Audio Coding 3
Расширение режима : CM (complete main)
Идентификатор кодека : 2000
Продолжительность : 49 м.
Вид битрейта : Постоянный
Битрейт : 192 Кбит/сек
Каналы : 2 канала
Расположение каналов : Front: L R
Частота : 48,0 КГц
Битовая глубина : 16 бит
Метод сжатия : С потерями
Размер потока : 68,5 Мбайт (12%)
Выравнивание : Разделение по промежуткам
Продолжительность промежутка : 40 мс. (1,00 видеокадр)
Время предзагрузки промежутка : 500 мс





   Похожие торренты   Торрент   Размер 
В этой теме нет новых непрочитанных сообщений. Новогодний переполох [01-04 из 04] (2012) DVDRip-AVC от Youtracker

28 | 5

2.18 ГБ

В этой теме нет новых непрочитанных сообщений. Новогодний переполох [01-04 из 04] (2012) DVDRip от Youtracker

2 | 3

1.46 ГБ

В этой теме нет новых непрочитанных сообщений. Новогодний переполох [01-04 из 04] (2012) DVD9 R5 от Youtracker

0 | 2

7.11 ГБ

В этой теме нет новых непрочитанных сообщений. Новогодний переполох [01-04 из 04] (2012) DVDRip от Generalfilm | КПК

0 | 5

747.02 МБ

В этой теме нет новых непрочитанных сообщений. Новогодний переполох [01-04 из 04] (2012) HDTVRip 720p

6 | 7

5.69 ГБ

В этой теме нет новых непрочитанных сообщений. Защитники сада. Новогодний переполох (2012) PC

36 | 12

127.7 МБ

В этой теме нет новых непрочитанных сообщений. Новогодний переполох 2 / Christmas Troubles 2 (2010) PC

0 | 2

71.68 МБ




Вы не можете начинать темы
Вы не можете отвечать на сообщения
Вы не можете редактировать свои сообщения
Вы не можете удалять свои сообщения
Вы не можете добавлять вложения

Перейти:  
Для Мосгорсуда, Роскомнадзора и рекламодателей: mosgorsud-torrent[собачка]yandex.ru
 Вход
ppkBB3cker v.2 © 2008-2014 @ PPK
[ Time : 0.060s | 14 Queries | GZIP : Off ]

Торрент трекер RUTOR.IN, Не можете зайти на rutor.org? Какой новый адрес рутор? Какое зеркало рутор? Не работает rutor.org и зеркала? Тогда наш торрент специально для вас. Rutor.in неофициальное зеркало rutor. В случае если у Вас заблокирован rutor или вдруг Вы не можете на него зайти, то Вы без труда сможете скачать бесплатно и без рекламы последние новинки кино, игр, сериалов и прочего у нас, на Rutor.in. Не нужно использовать прокси, чтобы зайти на рутор, достаточно воспользоваться нашим ресурсом. Все новые фильмы, игры, сериалы, книги и музыка за 2013 и 2014 годы через торрент бесплатно. Скачивайте фильмы в хорошем качестве, игры для пк, xbox, playstation без регистрации. У нас вы найдете новые Зарубежные сериалы и Русские сериалы 2013, 2014, 2015 годов. Оставайтесь с нами, качайте любимые фильмы, игры, сериалы, книги и музыку.