img image001 image001 image001 image001 image001 image001 image001 image001 image001 image001 image001 image001 image001 image001 image001

Planets Sun Sun Sun
Статистика раздачи
Автор: Снежана | Размер: 4.29 ГБ | Добавлен: 24 июл 2013
Раздают: 20    Качают: 12
Скачать торрент
Скачать торрент
Описание торрента

СообщениеДобавлено: 24 июл 2013 

#77

Информация о фильме
Название: Чаклун и Румба / Вторая ошибка сапера
Год выхода: 2007
Жанр: драма, военный
Режиссер: Андрей Голубев
В ролях: Андрей Федорцов, Ольга Рептух, Алексей Шедько, Юлия Полубинская, Александр Ткаченок, Андрей Голубев, Николай Чиндяйкин, Алла Пролич, Зоя Белохвостик, Владимир Мищанчук

О фильме: В центре лирико-драматического повествования — фронтовая судьба одного из миллионов простых солдат Великой Отечественной — сапера Федора Чаклуна и его четвероногого помощника — специально обученной овчарки по кличке Румба. Сапер на войне ошибается всего один раз. Сержант Федор Чаклун отлично нес службу, очищая фронтовые дороги от фашистских мин, пока не совершил свою первую ошибку — влюбился по неосторожности в регулировщицу Светлану. Когда по вине девушки погибли люди, Чаклун взял вину на себя…Трибунал, разжалование, штрафная рота… Он выполнял любой приказ, даже когда понимал, что идет на верную смерть. А рядом всегда была преданная Румба, бесстрашно следовавшая за ним в самое пекло сражений. И на поле боя, и в госпитале после ранения Чаклун мечтал вернуться к своей возлюбленной, встреченной на одном из перекрестков войны.



Страна: Беларусь
Продолжительность: 01:19:20
Язык: Русский

Файл
Кодек: MPEG2
Качество: DVD5
Видео: PAL 4:3 (720x576@768x576), ~6973 Kbps
Звук: Русский (Dolby AC3, 6 ch), 48000 Hz, 448 Kbps
Размер: 4.29 Gb

Общее
Полное имя : K:VIDEO_TSVTS_01_1.VOB
Формат : MPEG-PS
Размер файла : 1024 Мбайт
Продолжительность : 18 м.
Общий поток : 7572 Кбит/сек

Видео
Идентификатор : 224 (0xE0)
Формат : MPEG Video
Версия формата : Version 2
Профиль формата : Main@Main
Параметр BVOP формата : Да
Параметр матрицы формата : Выборочная
Продолжительность : 18 м.
Битрейт : 6973 Кбит/сек
Максимальный битрейт : 9300 Кбит/сек
Ширина : 720 пикселей
Высота : 576 пикселей
Соотношение сторон : 4:3
Частота кадров : 25,000 кадров/сек
Стандарт вещания : PAL
Цветовое пространство : YUV
Субдискретизация насыщенности : 4:2:0
Битовая глубина : 8 бит
Тип развёртки : Чересстрочная
Порядок развёртки : Нижнее поле первое
Метод сжатия : С потерями
Бит/(Пиксели*Кадры) : 0.673
Размер потока : 943 Мбайт (92%)

Аудио
Идентификатор : 189 (0xBD)-128 (0x80)
Формат : AC-3
Формат/Информация : Audio Coding 3
Расширение режима : CM (complete main)
Параметр Endianness формата : Big
Режим смешивания : DVD-Video
Продолжительность : 8 с. 384 мс.
Вид битрейта : Постоянный
Битрейт : 448 Кбит/сек
Каналы : 6 каналов
Расположение каналов : Front: L C R, Side: L R, LFE
Частота : 48,0 КГц
Битовая глубина : 16 бит
Метод сжатия : С потерями
Размер потока : 459 Кбайт (0%)

Ограничение по возрасту 16 лет





   Похожие торренты   Торрент   Размер 
В этой теме нет новых непрочитанных сообщений. Чаклун и Румба / Вторая ошибка сапера (2007) DVDRip от Киномагия

67 | 19

1.21 ГБ

В этой теме нет новых непрочитанных сообщений. Процесс и ошибка / Trial and Error (1997) DVD5 | P

1 | 2

4 ГБ

В этой теме нет новых непрочитанных сообщений. Ось войны. Часть вторая: Мой долгий марш / Axis of War: My Long March (2010) DVD5

1 | 2

4.03 ГБ

В этой теме нет новых непрочитанных сообщений. Reprobates: Вторая жизнь / Next Life (2007) PC

31 | 5

3.93 ГБ

В этой теме нет новых непрочитанных сообщений. Reprobates: Вторая жизнь / Next Life (2007) PC | RePack

26 | 3

2.51 ГБ

В этой теме нет новых непрочитанных сообщений. Вторая мировая / Theatre of War (2007-2009) PC | Steam-Rip

768 | 27

3.5 ГБ

В этой теме нет новых непрочитанных сообщений. Снегов Сергей - Люди как боги. Книга вторая: Вторжение в Персей (2007) МР3

32 | 4

602.49 МБ




Вы не можете начинать темы
Вы не можете отвечать на сообщения
Вы не можете редактировать свои сообщения
Вы не можете удалять свои сообщения
Вы не можете добавлять вложения

Перейти:  
Для Мосгорсуда, Роскомнадзора и рекламодателей: mosgorsud-torrent[собачка]yandex.ru
 Вход
ppkBB3cker v.2 © 2008-2014 @ PPK
[ Time : 0.027s | 15 Queries | GZIP : Off ]

cron