img image001 image001 image001 image001 image001 image001 image001 image001 image001 image001 image001 image001 image001 image001 image001

Planets Sun Sun Sun
Статистика раздачи
Автор: Снежана | Размер: 3.58 ГБ | Добавлен: 24 июл 2013
Раздают: 19    Качают: 5
Скачать торрент
Скачать торрент
Описание торрента

СообщениеДобавлено: 24 июл 2013 

#77

Информация о фильме
Название: Отпуск в сентябре
Год выхода: 1979
Жанр: Драма
Режиссер: Виталий Мельников
В ролях: Олег Даль, Ирина Купченко, Ирина Резникова, Наталья Гундарева, Наталья Миколышина, Юрий Богатырёв, Геннадий Богачёв, Николай Бурляев, Евгений Леонов

О фильме:
Виктор Зилов на работе получат долгожданную квартиру и устраивает новоселье для друзей, с которыми дружит еще со школьных времен. Галина — жена Виктора — возлагает на квартиру большие надежды. Ей кажется, что теперь начнется счастливая жизнь...

Страна: СССР
Студия: Ленфильм
Продолжительность: 02:16:09
Перевод: не требуется

Файл
Кодек: h.264
Качество: DVDRip-AVC
Видео: 704x560 (4:3) @ 746x560 (анаморф), 25.000 fps, AVC, ~3150 Kbps, 0.320 bits/pixel
Звук:
1) Русский, 48.0 KHz, AC3, 1 ch, 160 Kbps
2) Русский, 48.0 KHz, AC3, 6 ch, 448 Kbps
Субтитры: нет

Источник - R5 DVD9 "Крупный План" - полная реставрация изображения и звука.

Общее
Уникальный идентификатор : 254073883834851242674056958070417036301 (0xBF24D99FEB6F0C0C92420C2A1DD4940D)
Полное имя : E:Otpusk_v_sentyabre.1979.DVDRip-AVC.mkv
Формат : Matroska
Версия формата : Version 4 / Version 2
Размер файла : 3,58 Гбайт
Продолжительность : 2 ч. 16 м.
Общий поток : 3760 Кбит/сек
Дата кодирования : UTC 2013-02-12 15:48:48
Программа кодирования : mkvmerge v6.0.0 ('Coming Up For Air') built on Jan 20 2013 09:52:00
Библиотека кодирования : libebml v1.3.0 + libmatroska v1.4.0

Видео
Идентификатор : 1
Формат : AVC
Формат/Информация : Advanced Video Codec
Профиль формата : High@L4.1
Параметр CABAC формата : Да
Параметр ReFrames формата : 8 кадров
Идентификатор кодека : V_MPEG4/ISO/AVC
Продолжительность : 2 ч. 16 м.
Битрейт : 3150 Кбит/сек
Ширина : 704 пикселя
Высота : 560 пикселей
Соотношение сторон : 4:3
Соотношение сторон в оригинале : 4:3
Режим частоты кадров : Постоянный
Частота кадров : 25,000 кадров/сек
Цветовое пространство : YUV
Субдискретизация насыщенности : 4:2:0
Битовая глубина : 8 бит
Тип развёртки : Прогрессивная
Бит/(Пиксели*Кадры) : 0.320
Размер потока : 2,93 Гбайт (82%)
Библиотека кодирования : x264 core 129 r2245 bc13772
Настройки программы : cabac=1 / ref=8 / deblock=1:-1:0 / analyse=0x3:0x133 / me=umh / subme=9 / psy=1 / psy_rd=1.00:0.15 / mixed_ref=1 / me_range=16 / chroma_me=1 / trellis=2 / 8x8dct=1 / cqm=0 / deadzone=21,11 / fast_pskip=1 / chroma_qp_offset=-3 / threads=8 / lookahead_threads=1 / sliced_threads=0 / nr=0 / decimate=1 / interlaced=0 / bluray_compat=0 / constrained_intra=0 / bframes=3 / b_pyramid=2 / b_adapt=2 / b_bias=0 / direct=3 / weightb=1 / open_gop=0 / weightp=2 / keyint=250 / keyint_min=25 / scenecut=40 / intra_refresh=0 / rc_lookahead=60 / rc=2pass / mbtree=1 / bitrate=3150 / ratetol=1.0 / qcomp=0.60 / qpmin=0 / qpmax=69 / qpstep=4 / cplxblur=20.0 / qblur=0.5 / ip_ratio=1.40 / aq=1:1.00
Default : Нет
Forced : Нет
Коэффициенты матрицы : BT.601

Аудио #1
Идентификатор : 2
Формат : AC-3
Формат/Информация : Audio Coding 3
Расширение режима : CM (complete main)
Параметр Endianness формата : Big
Идентификатор кодека : A_AC3
Продолжительность : 2 ч. 16 м.
Вид битрейта : Постоянный
Битрейт : 160 Кбит/сек
Каналы : 1 канал
Расположение каналов : Front: C
Частота : 48,0 КГц
Битовая глубина : 16 бит
Метод сжатия : С потерями
Размер потока : 156 Мбайт (4%)
Язык : Russian
Default : Да
Forced : Нет

Аудио #2
Идентификатор : 3
Формат : AC-3
Формат/Информация : Audio Coding 3
Расширение режима : CM (complete main)
Параметр Endianness формата : Big
Идентификатор кодека : A_AC3
Продолжительность : 2 ч. 16 м.
Вид битрейта : Постоянный
Битрейт : 448 Кбит/сек
Каналы : 6 каналов
Расположение каналов : Front: L C R, Side: L R, LFE
Частота : 48,0 КГц
Битовая глубина : 16 бит
Метод сжатия : С потерями
Размер потока : 436 Мбайт (12%)
Язык : Russian
Default : Нет
Forced : Нет

Меню
00:00:00.000 : en:Chapter 01
00:11:16.680 : en:Chapter 02
00:22:40.200 : en:Chapter 03
00:29:07.040 : en:Chapter 04
00:41:05.200 : en:Chapter 05
00:51:24.200 : en:Chapter 06
01:03:59.960 : en:Chapter 07
01:06:38.600 : en:Chapter 08
01:17:45.480 : en:Chapter 09
01:25:47.640 : en:Chapter 10
01:34:44.320 : en:Chapter 11
01:40:33.000 : en:Chapter 12
01:56:09.840 : en:Chapter 13
02:03:43.120 : en:Chapter 14
02:09:19.720 : en:Chapter 15
02:16:07.640 : en:Chapter 16

Анаморфные


Релиз от: Temperest



   Похожие торренты   Торрент   Размер 
В этой теме нет новых непрочитанных сообщений. Отпуск в сентябре (1979) DVDRip от Киномагия

56 | 5

2.33 ГБ

В этой теме нет новых непрочитанных сообщений. Отпуск в сентябре (1979) DVDRip-AVC от New-Team

91 | 7

2.18 ГБ

В этой теме нет новых непрочитанных сообщений. Отпуск в сентябре (1979) DVDRip от New-Team

59 | 16

1.46 ГБ

В этой теме нет новых непрочитанных сообщений. Отпуск в сентябре (1979) DVDRip-AVC от ExKinoRay

152 | 10

2.59 ГБ

В этой теме нет новых непрочитанных сообщений. Отпуск в сентябре (2000) DVDRip от New-Team

8 | 3

2.19 ГБ

В этой теме нет новых непрочитанных сообщений. Куда ты едешь в отпуск? / Dove vai in vacanza? (1979) DVDRip от SergV

12 | 7

2.17 ГБ

В этой теме нет новых непрочитанных сообщений. Поляна / Il Prato (1979) DVDRip-AVC от Temperest

24 | 18

1.91 ГБ




Вы не можете начинать темы
Вы не можете отвечать на сообщения
Вы не можете редактировать свои сообщения
Вы не можете удалять свои сообщения
Вы не можете добавлять вложения

Перейти:  
Для Мосгорсуда, Роскомнадзора и рекламодателей: mosgorsud-torrent[собачка]yandex.ru
 Вход
ppkBB3cker v.2 © 2008-2014 @ PPK
[ Time : 0.029s | 14 Queries | GZIP : Off ]

Торрент трекер RUTOR.IN, Не можете зайти на rutor.org? Какой новый адрес рутор? Какое зеркало рутор? Не работает rutor.org и зеркала? Тогда наш торрент специально для вас. Rutor.in неофициальное зеркало rutor. В случае если у Вас заблокирован rutor или вдруг Вы не можете на него зайти, то Вы без труда сможете скачать бесплатно и без рекламы последние новинки кино, игр, сериалов и прочего у нас, на Rutor.in. Не нужно использовать прокси, чтобы зайти на рутор, достаточно воспользоваться нашим ресурсом. Все новые фильмы, игры, сериалы, книги и музыка за 2013 и 2014 годы через торрент бесплатно. Скачивайте фильмы в хорошем качестве, игры для пк, xbox, playstation без регистрации. У нас вы найдете новые Зарубежные сериалы и Русские сериалы 2013, 2014, 2015 годов. Оставайтесь с нами, качайте любимые фильмы, игры, сериалы, книги и музыку.