img image001 image001 image001 image001 image001 image001 image001 image001 image001 image001 image001 image001 image001 image001 image001

Planets Sun Sun Sun
Статистика раздачи
Автор: Снежана | Размер: 744.62 МБ | Добавлен: 24 июл 2013
Раздают: 9    Качают: 9
Скачать торрент
Скачать торрент
Описание торрента

СообщениеДобавлено: 24 июл 2013 

#77
Страна: СССР
Производство: Ленфильм, ЦОКС
Жанр: мюзикл, комедия
Год выпуска: 1943
Продолжительность: 01:11:07

Перевод: не требуется
Оригинальная аудиодорожка: русский
Cубтитры: нет

Режиссер: Герберт Раппапорт

В ролях: Михаил Жаров, Людмила Целиковская, Борис Блинов, Григорий Шпигель, Владимир Грибков, Михаил Кузнецов, Константин Сорокин и другие.

Описание:
Летчик Баранов, уже немолодой, одинокий человек, влюбляется в начинающую талантливую певицу Наташу Куликову. Ее родители против брака, но влюбленные уверены, что созданы друг для друга и будут счастливы. Но начинается война, и Баранова направляют на один из тыловых аэродромов. Однажды, выполняя задание по переброске грузов на фронт, Баранов потерял ориентацию в тумане. Спасает летчика голос любимой по радио…





Исходник: DVD5 R5
Тип релиза: DVDRip
Контейнер: AVI

Видео: 688x528 (4:3), 25 fps, XviD ~ 1326 kbps avg, 0.146 bit/pixel
Аудио: 48 kHz, MP3 2.0, 128 kbps

Раздача от:
Общее
Полное имя : Vozdushnyj.izvozchik.1943.DVDRip_[Youtracker]_by_AVP Studio.avi
Формат : AVI
Формат/Информация : Audio Video Interleave
Размер файла : 745 Мбайт
Продолжительность : 1 ч. 11 м.
Общий поток : 1464 Кбит/сек
Программа кодирования : VirtualDubMod 1.5.10.3 | www.virtualdub-fr.org || (build 2550/release)
Библиотека кодирования : VirtualDubMod build 2550/release

Видео
Идентификатор : 0
Формат : MPEG-4 Visual
Профиль формата : Advanced Simple@L5
Параметр BVOP формата : 1
Параметр QPel формата : Нет
Параметр GMC формата : Без точки перехода
Параметр матрицы формата : Выборочная
Идентификатор кодека : XVID
Идентификатор кодека/Подсказка : XviD
Продолжительность : 1 ч. 11 м.
Битрейт : 1326 Кбит/сек
Ширина : 688 пикселей
Высота : 528 пикселей
Соотношение сторон : 4:3
Частота кадров : 25,000 кадров/сек
Цветовое пространство : YUV
Субдискретизация насыщенности : 4:2:0
Битовая глубина : 8 бит
Тип развёртки : Прогрессивная
Метод сжатия : С потерями
Бит/(Пиксели*Кадры) : 0.146
Размер потока : 675 Мбайт (91%)
Библиотека кодирования : XviD 65

Аудио
Идентификатор : 1
Формат : MPEG Audio
Версия формата : Version 1
Профиль формата : Layer 3
Идентификатор кодека : 55
Идентификатор кодека/Подсказка : MP3
Продолжительность : 1 ч. 11 м.
Вид битрейта : Постоянный
Битрейт : 128 Кбит/сек
Каналы : 2 канала
Частота : 48,0 КГц
Метод сжатия : С потерями
Размер потока : 65,1 Мбайт (9%)
Выравнивание : Соединение по промежуткам
Продолжительность промежутка : 40 мс. (1,00 видеокадр)
Время предзагрузки промежутка : 504 мс.
Библиотека кодирования : L3.99r
Настройки программы : -m s -V 4 -q 2 -lowpass 17 -b 128



27.10.1899 - 15.12.1981
Михаил Иванович Жаров родился 27 октября 1899 года в Москве. После окончания в 1919 году студии при театре Художественно-просветительного союза рабочих организаций работал в передвижном фронтовом театре, Опытно-героическом театре, Театре имени Мейерхольда, Бакинском рабочем театре. В 1931 - 37 гг. - артист Камерного театра, а с 1938 года - в Малом театре, где сыграл многие роли классического и современного репертуара и где раскрылась широта творческого диапазона актера. Первая роль в кино - эпизодическая, в фильме "Папиросница от Моссельпрома"(1924). Одной из первых значительных ролей Жарова стал Жиган ("Путевка в жизнь"1931) - главарь воровской шайки. В "Возвращении Максима"(1937) и "Выборгской стороне"(1939) актер сыграл отрицательную роль конторщика Дымбы, сатирическое исполнение которой мастерски оттенил комедийными нотами. В фильме "Петр I"(1937,1939) Жаров блистательно создал образ незаурядного, хотя и развязно-жуликоватого Менщикова, а в ленте "Иван Грозный"(1945) он превратился в мрачного подозрительного Малюту Скуратова, "верного царского пса". Кроме актерской работы Жаров также выступал и как режиссер - не только в театре, но и в кино, поставив фильм "Беспокойное хозяйство"(1946), в котором и сыграл одну из главных ролей. Среди других запоминающихся ролей - Смирнов ("Медведь",1938), военный министр ("Каин XVIII", 1963), Анискин ("Деревенский детектив",1969). Этот герой Жарова, полюбившийся зрителям, вскоре опять появился на экране, только на телевизионном в телефильмах "Анискин и Фантомас"(1974), "И снова Анискин"(1978), причем Жаров не только исполнил заглавную роль, но и работал на съемочной площадке как сорежисер.



   Похожие торренты   Торрент   Размер 
В этой теме нет новых непрочитанных сообщений. Воздушный извозчик (1943) DVDRip-AVC от Youtracker

117 | 17

894.69 МБ

В этой теме нет новых непрочитанных сообщений. Извозчик № 13 / Dorożkarz nr 13 (1937) DVDRip | A

2 | 1

692.24 МБ

В этой теме нет новых непрочитанных сообщений. Попай - моряк / Popeye the Sailor [001-123 из 123] (1933-1943) 8xDVD9 от Youtracker

1 | 4

48.72 ГБ

В этой теме нет новых непрочитанных сообщений. Искусство войны: Африка 1943 / Theatre of War 2: Africa 1943 (2009) PC | Steam-Rip

196 | 24

1.58 ГБ

В этой теме нет новых непрочитанных сообщений. Искусство войны: Африка 1943 / Theatre of War 2: Africa 1943 (2009) PC

73 | 9

1.81 ГБ

В этой теме нет новых непрочитанных сообщений. Александр Новиков - Вези Меня, Извозчик (1984) WAV

26 | 6

441.8 МБ

В этой теме нет новых непрочитанных сообщений. Воздушный змей / Le cerf-volant (2003) DVDRip | P2

26 | 14

698.36 МБ




Вы не можете начинать темы
Вы не можете отвечать на сообщения
Вы не можете редактировать свои сообщения
Вы не можете удалять свои сообщения
Вы не можете добавлять вложения

Перейти:  
Для Мосгорсуда, Роскомнадзора и рекламодателей: mosgorsud-torrent[собачка]yandex.ru
 Вход
ppkBB3cker v.2 © 2008-2014 @ PPK
[ Time : 0.575s | 14 Queries | GZIP : On ]

Торрент трекер RUTOR.IN, Не можете зайти на rutor.org? Какой новый адрес рутор? Какое зеркало рутор? Не работает rutor.org и зеркала? Тогда наш торрент специально для вас. Rutor.in неофициальное зеркало rutor. В случае если у Вас заблокирован rutor или вдруг Вы не можете на него зайти, то Вы без труда сможете скачать бесплатно и без рекламы последние новинки кино, игр, сериалов и прочего у нас, на Rutor.in. Не нужно использовать прокси, чтобы зайти на рутор, достаточно воспользоваться нашим ресурсом. Все новые фильмы, игры, сериалы, книги и музыка за 2013 и 2014 годы через торрент бесплатно. Скачивайте фильмы в хорошем качестве, игры для пк, xbox, playstation без регистрации. У нас вы найдете новые Зарубежные сериалы и Русские сериалы 2013, 2014, 2015 годов. Оставайтесь с нами, качайте любимые фильмы, игры, сериалы, книги и музыку.