img image001 image001 image001 image001 image001 image001 image001 image001 image001 image001 image001 image001 image001 image001 image001

Planets Sun Sun Sun
Статистика раздачи
Автор: Снежана | Размер: 894.69 МБ | Добавлен: 24 июл 2013
Раздают: 117    Качают: 17
Скачать торрент
Скачать торрент
Описание торрента

СообщениеДобавлено: 24 июл 2013 

#77
Страна: СССР
Производство: Ленфильм, ЦОКС
Жанр: мюзикл, комедия
Год выпуска: 1943
Продолжительность: 01:11:07

Перевод: не требуется
Оригинальная аудиодорожка: русский
Cубтитры: нет

Режиссер: Герберт Раппапорт

В ролях: Михаил Жаров, Людмила Целиковская, Борис Блинов, Григорий Шпигель, Владимир Грибков, Михаил Кузнецов, Константин Сорокин и другие.

Описание:
Летчик Баранов, уже немолодой, одинокий человек, влюбляется в начинающую талантливую певицу Наташу Куликову. Ее родители против брака, но влюбленные уверены, что созданы друг для друга и будут счастливы. Но начинается война, и Баранова направляют на один из тыловых аэродромов. Однажды, выполняя задание по переброске грузов на фронт, Баранов потерял ориентацию в тумане. Спасает летчика голос любимой по радио…





Исходник: DVD5 R5
Тип релиза: DVDRip-AVC
Контейнер: MKV

Видео: 696x576@768x576 (1,297:1), 25 fps, H264 ~ 1565 kbps avg, 0.156 bit/pixel
Аудио: 48 kHz, AC3 2.0, 192 kbps

Раздача от:
Общее
Полное имя : Vozdushnyj.izvozchik.1943.DVDRip-AVC_[Youtracker]_by_AVP Studio.mkv
Формат : Matroska
Версия формата : Version 2
Размер файла : 895 Мбайт
Продолжительность : 1 ч. 11 м.
Общий поток : 1759 Кбит/сек
Дата кодирования : UTC 2013-02-15 20:47:16
Программа кодирования : mkvmerge v5.0.1 ('Es ist Sommer') built on Nov 6 2011 16:23:40
Библиотека кодирования : libebml v1.2.2 + libmatroska v1.3.0

Видео
Идентификатор : 1
Формат : AVC
Формат/Информация : Advanced Video Codec
Профиль формата : High@L4.1
Параметр CABAC формата : Да
Параметр ReFrames формата : 11 кадров
Идентификатор кодека : V_MPEG4/ISO/AVC
Продолжительность : 1 ч. 11 м.
Битрейт : 1565 Кбит/сек
Ширина : 696 пикселей
Высота : 576 пикселей
Соотношение сторон : 1,297
Соотношение сторон в оригинале : 1,296
Частота кадров : 25,000 кадров/сек
Цветовое пространство : YUV
Субдискретизация насыщенности : 4:2:0
Битовая глубина : 8 бит
Тип развёртки : Прогрессивная
Бит/(Пиксели*Кадры) : 0.156
Размер потока : 779 Мбайт (87%)
Библиотека кодирования : x264 core 119 r2106 07efeb4
Настройки программы : cabac=1 / ref=11 / deblock=1:-2:-1 / analyse=0x3:0x113 / me=umh / subme=9 / psy=1 / psy_rd=1.00:0.20 / mixed_ref=1 / me_range=32 / chroma_me=1 / trellis=1 / 8x8dct=1 / cqm=0 / deadzone=21,11 / fast_pskip=0 / chroma_qp_offset=-3 / threads=3 / sliced_threads=0 / nr=0 / decimate=0 / interlaced=0 / bluray_compat=0 / constrained_intra=0 / bframes=8 / b_pyramid=2 / b_adapt=2 / b_bias=0 / direct=3 / weightb=1 / open_gop=0 / weightp=2 / keyint=250 / keyint_min=25 / scenecut=40 / intra_refresh=0 / rc_lookahead=60 / rc=2pass / mbtree=1 / bitrate=1565 / ratetol=1.0 / qcomp=0.60 / qpmin=0 / qpmax=69 / qpstep=4 / cplxblur=20.0 / qblur=0.5 / ip_ratio=1.40 / aq=1:1.00
Default : Да
Forced : Нет

Аудио
Идентификатор : 2
Формат : AC-3
Формат/Информация : Audio Coding 3
Профиль формата : Dolby Digital
Расширение режима : CM (complete main)
Идентификатор кодека : A_AC3
Продолжительность : 1 ч. 11 м.
Вид битрейта : Постоянный
Битрейт : 192 Кбит/сек
Каналы : 2 канала
Расположение каналов : Front: L R
Частота : 48,0 КГц
Битовая глубина : 16 бит
Метод сжатия : С потерями
Размер потока : 97,7 Мбайт (11%)
Default : Да
Forced : Нет



27.10.1899 - 15.12.1981
Михаил Иванович Жаров родился 27 октября 1899 года в Москве. После окончания в 1919 году студии при театре Художественно-просветительного союза рабочих организаций работал в передвижном фронтовом театре, Опытно-героическом театре, Театре имени Мейерхольда, Бакинском рабочем театре. В 1931 - 37 гг. - артист Камерного театра, а с 1938 года - в Малом театре, где сыграл многие роли классического и современного репертуара и где раскрылась широта творческого диапазона актера. Первая роль в кино - эпизодическая, в фильме "Папиросница от Моссельпрома"(1924). Одной из первых значительных ролей Жарова стал Жиган ("Путевка в жизнь"1931) - главарь воровской шайки. В "Возвращении Максима"(1937) и "Выборгской стороне"(1939) актер сыграл отрицательную роль конторщика Дымбы, сатирическое исполнение которой мастерски оттенил комедийными нотами. В фильме "Петр I"(1937,1939) Жаров блистательно создал образ незаурядного, хотя и развязно-жуликоватого Менщикова, а в ленте "Иван Грозный"(1945) он превратился в мрачного подозрительного Малюту Скуратова, "верного царского пса". Кроме актерской работы Жаров также выступал и как режиссер - не только в театре, но и в кино, поставив фильм "Беспокойное хозяйство"(1946), в котором и сыграл одну из главных ролей. Среди других запоминающихся ролей - Смирнов ("Медведь",1938), военный министр ("Каин XVIII", 1963), Анискин ("Деревенский детектив",1969). Этот герой Жарова, полюбившийся зрителям, вскоре опять появился на экране, только на телевизионном в телефильмах "Анискин и Фантомас"(1974), "И снова Анискин"(1978), причем Жаров не только исполнил заглавную роль, но и работал на съемочной площадке как сорежисер.



   Похожие торренты   Торрент   Размер 
В этой теме нет новых непрочитанных сообщений. Воздушный извозчик (1943) DVDRip от Youtracker

9 | 9

744.62 МБ

В этой теме нет новых непрочитанных сообщений. Извозчик № 13 / Dorożkarz nr 13 (1937) DVDRip | A

2 | 1

692.24 МБ

В этой теме нет новых непрочитанных сообщений. Попай - моряк / Popeye the Sailor [001-123 из 123] (1933-1943) 8xDVD9 от Youtracker

1 | 4

48.72 ГБ

В этой теме нет новых непрочитанных сообщений. Искусство войны: Африка 1943 / Theatre of War 2: Africa 1943 (2009) PC | Steam-Rip

196 | 24

1.58 ГБ

В этой теме нет новых непрочитанных сообщений. Искусство войны: Африка 1943 / Theatre of War 2: Africa 1943 (2009) PC

73 | 9

1.81 ГБ

В этой теме нет новых непрочитанных сообщений. Александр Новиков - Вези Меня, Извозчик (1984) WAV

26 | 6

441.8 МБ

В этой теме нет новых непрочитанных сообщений. Воздушный удар / Air Strike (2002) DVDRip от BT-CLUB

4 | 2

1.37 ГБ




Вы не можете начинать темы
Вы не можете отвечать на сообщения
Вы не можете редактировать свои сообщения
Вы не можете удалять свои сообщения
Вы не можете добавлять вложения

Перейти:  
Для Мосгорсуда, Роскомнадзора и рекламодателей: mosgorsud-torrent[собачка]yandex.ru
 Вход
ppkBB3cker v.2 © 2008-2014 @ PPK
[ Time : 0.030s | 15 Queries | GZIP : Off ]

cron