img image001 image001 image001 image001 image001 image001 image001 image001 image001 image001 image001 image001 image001 image001 image001

Planets Sun Sun Sun
Статистика раздачи
Автор: Снежана | Размер: 2.09 ГБ | Добавлен: 24 июл 2013
Раздают: 237    Качают: 28
Скачать торрент
Скачать торрент
Описание торрента

СообщениеДобавлено: 24 июл 2013 

#77

Год выпуска: 2008
Страна: Россия
Жанр: Фантастика, боевик, приключения, военный, история
Продолжительность: 01:55:35
Перевод: Не требуется

Режиссер: Андрей Малюков
Продюссер: Сергей Шумаков, Людмила Кукоба, Ангелина Павличенко
Сценарий: Александр Шевцов, Эдуард Володарский, Кирилл Белевич

Мировой рейтинг IMDB 6.90 (1 332)


В ролях: Данила Козловский, Дмитрий Волкострелов, Владимир Яглыч, Андрей Терентьев, Екатерина Климова, Борис Галкин, Даниил Страхов, Сергей Маховиков, Зоя Буряк, Глория Августинович

Описание: Действие картины разворачивается в двух временных пластах: в наши дни и в годы войны, во время тяжелых оборонительных боев августа 1942-го. Главные герои ленты — четверо «черных следопытов» (людей этой сомнительной профессии называют также «черными копателями») — Борман, Череп, Чуха и Спирт. Они ведут раскопки в тех местах, где когда-то шли бои, чтобы потом продать найденные медали, ордена, документы и немецкое оружие.Дело это выгодное, но опасное. Однажды на месте раскопок начинает происходить нечто странное: в найденных солдатских книжках, принадлежавших погибшим солдатам Красной армии, вдруг обнаруживаются фотографии самих «следопытов». Пытаясь прийти в себя, коллеги по «черному» бизнесу отправляются купаться в озере и... попадают в 1942 год. В самый разгар тяжелых боев.

Качество: DVDRip-AVC
Формат: MKV
Видео кодек: H.264
Аудио кодек: AC3
Видео: H.264, 1024x548, 25.000fps, 2136 Kbps, , High10@L5.1
Аудио: AC3, 48.0 KHz, 448 Kbps, 2 channels, 16 bits

General
Unique ID : 220903454012148486011359436580279700467 (0xA630752B2CF0904A863BF4B69FE64BF3)
Complete name : D:Мы из будущего [DVDRip-AVC].mkv
Format : Matroska
Format version : Version 2
File size : 2.09 GiB
Duration : 1h 55mn
Overall bit rate : 2 585 Kbps
Encoded date : UTC 2012-12-28 21:43:38
Writing application : mkvmerge v5.8.0 ('No Sleep / Pillow') built on Sep 2 2012 15:37:04
Writing library : libebml v1.2.3 + libmatroska v1.3.0

Video
ID : 1
Format : AVC
Format/Info : Advanced Video Codec
Format profile : High 10@L5.1
Format settings, CABAC : Yes
Format settings, ReFrames : 16 frames
Codec ID : V_MPEG4/ISO/AVC
Duration : 1h 55mn
Bit rate : 2 136 Kbps
Width : 1 024 pixels
Height : 548 pixels
Display aspect ratio : 1.85:1
Frame rate mode : Constant
Frame rate : 25.000 fps
Color space : YUV
Chroma subsampling : 4:2:0
Bit depth : 10 bits
Scan type : Progressive
Bits/(Pixel*Frame) : 0.152
Stream size : 1.68 GiB (81%)
Writing library : x264 core 129 r2230+696+35 805d074 tMod [10-bit@all X86_64]
Encoding settings : cabac=1 / ref=16 / deblock=1:-3:-3 / analyse=0x3:0x133 / me=tesa / subme=11 / psy=1 / fade_compensate=0.00 / psy_rd=1.00:0.15 / mixed_ref=1 / me_range=32 / chroma_me=1 / trellis=2 / 8x8dct=1 / cqm=0 / deadzone=21,11 / fast_pskip=1 / chroma_qp_offset=-3 / threads=6 / lookahead_threads=1 / sliced_threads=0 / nr=0 / decimate=1 / interlaced=0 / bluray_compat=0 / constrained_intra=0 / fgo=0 / bframes=9 / b_pyramid=2 / b_adapt=2 / b_bias=0 / direct=2 / weightb=1 / open_gop=0 / weightp=2 / keyint=240 / keyint_min=25 / scenecut=40 / intra_refresh=0 / rc_lookahead=50 / rc=2pass / mbtree=1 / bitrate=2136 / ratetol=1.0 / qcomp=0.60 / qpmin=10 / qpmax=51 / qpstep=4 / cplxblur=20.0 / qblur=0.5 / vbv_maxrate=30000 / vbv_bufsize=50000 / nal_hrd=none / ip_ratio=1.40 / aq=1:1.00
Language : English
Default : Yes
Forced : No
Color primaries : BT.709
Transfer characteristics : BT.709
Matrix coefficients : BT.709

Audio
ID : 2
Format : AC-3
Format/Info : Audio Coding 3
Mode extension : CM (complete main)
Format settings, Endianness : Big
Codec ID : A_AC3
Duration : 1h 55mn
Bit rate mode : Constant
Bit rate : 448 Kbps
Channel(s) : 2 channels
Channel positions : Front: L R
Sampling rate : 48.0 KHz
Bit depth : 16 bits
Compression mode : Lossy
Stream size : 370 MiB (17%)
Language : Russian
Default : Yes
Forced : No



Релиз от:



   Похожие торренты   Торрент   Размер 
В этой теме нет новых непрочитанных сообщений. Мы из будущего (2008) DVDRip-AVC от FREEISLAND

81 | 13

5.25 ГБ

В этой теме нет новых непрочитанных сообщений. Мы из будущего (2008) DVDRip

115 | 6

754.61 МБ

В этой теме нет новых непрочитанных сообщений. Мы из будущего (2008) DVDRip

523 | 39

1.37 ГБ

В этой теме нет новых непрочитанных сообщений. Мы из будущего (2008) DVDRip от Scarabey

251 | 12

1.45 ГБ

В этой теме нет новых непрочитанных сообщений. Мы из будущего (2008) DVDRip от Scarabey

381 | 51

747.08 МБ

В этой теме нет новых непрочитанных сообщений. Мы из будущего (2008) DVDRip от HQ-ViDEO

86 | 14

2.18 ГБ

В этой теме нет новых непрочитанных сообщений. Последний день будущего / Evilution (2008) DVDRip

117 | 49

1.44 ГБ




Вы не можете начинать темы
Вы не можете отвечать на сообщения
Вы не можете редактировать свои сообщения
Вы не можете удалять свои сообщения
Вы не можете добавлять вложения

Перейти:  
Для Мосгорсуда, Роскомнадзора и рекламодателей: mosgorsud-torrent[собачка]yandex.ru
 Вход
ppkBB3cker v.2 © 2008-2014 @ PPK
[ Time : 0.097s | 16 Queries | GZIP : Off ]
CGP output time : 0.071s | 5 Queries | GZIP : Off

Торрент трекер RUTOR.IN, Не можете зайти на rutor.org? Какой новый адрес рутор? Какое зеркало рутор? Не работает rutor.org и зеркала? Тогда наш торрент специально для вас. Rutor.in неофициальное зеркало rutor. В случае если у Вас заблокирован rutor или вдруг Вы не можете на него зайти, то Вы без труда сможете скачать бесплатно и без рекламы последние новинки кино, игр, сериалов и прочего у нас, на Rutor.in. Не нужно использовать прокси, чтобы зайти на рутор, достаточно воспользоваться нашим ресурсом. Все новые фильмы, игры, сериалы, книги и музыка за 2013 и 2014 годы через торрент бесплатно. Скачивайте фильмы в хорошем качестве, игры для пк, xbox, playstation без регистрации. У нас вы найдете новые Зарубежные сериалы и Русские сериалы 2013, 2014, 2015 годов. Оставайтесь с нами, качайте любимые фильмы, игры, сериалы, книги и музыку.