img image001 image001 image001 image001 image001 image001 image001 image001 image001 image001 image001 image001 image001 image001 image001

Planets Sun Sun Sun
Статистика раздачи
Автор: Снежана | Размер: 745.49 МБ | Добавлен: 24 июл 2013
Раздают: 93    Качают: 20
Скачать торрент
Скачать торрент
Описание торрента

СообщениеДобавлено: 24 июл 2013 

#77
Страна: СССР
Производство: Студия Горького
Жанр: драма, мелодрама
Год выпуска: 1957
Продолжительность: 01:34:13

Перевод: не требуется
Оригинальная аудиодорожка: русский
Cубтитры: нет

Режиссер: Станислав Ростоцкий

В ролях: Вячеслав Тихонов, Светлана Дружинина, Валентина Телегина, Анатолий Кубацкий, Юрий Медведев и другие.

Описание: В родное село возвращается из мест «не столь отдаленных» лихой тракторист Матвей Морозов. И вспоминается ему история его женитьбы, его роковой любви, несостоявшейся измены и совершенного сгоряча «преступления», в котором он нисколько не раскаивается. Первый парень на деревне, Матвей Морозов был настоящей головной болью для председателя колхоза. Правда, работал за десятерых, но горазд был на всякие выдумки. Да к тому же полюбила его председательская дочка Лариса. Очередной выходкой Матвея были «гонки» на тракторах с передовиком производства Зефировым, в результате чего был сломан трактор. Чуть было не отдали Матвея под суд, да вместо этого пришлось играть его свадьбу с Ларисой. А потом поползли по селу слухи о «дружбе» Матвея с новым зоотехником Тоней. Жутко взревновала Лариса и задумала извести соперницу. Да еще бабка Алевтина — местная сплетница и самогонщица — подлила масла в огонь, выложив новые сведения о Матвее и Тоне…





Исходник: DVD5 R5
Тип релиза: DVDRip
Контейнер: AVI

Видео: 576x448 (1,286:1), 25 fps, XviD ~ 969 kbps avg, 0.150 bit/pixel
Аудио: 48 kHz, MP3 2.0, 128 kbps

Раздача от:
Общее
Полное имя : Delo.bylo.v.Pen'kove.1957.DVDRip-745_[Youtracker]_by_AVP Studio.avi
Формат : AVI
Формат/Информация : Audio Video Interleave
Размер файла : 745 Мбайт
Продолжительность : 1 ч. 34 м.
Общий поток : 1106 Кбит/сек
Программа кодирования : VirtualDubModRus 1.5.10.2 (build 2542/release)
Библиотека кодирования : VirtualDubMod build 2542/release

Видео
Идентификатор : 0
Формат : MPEG-4 Visual
Профиль формата : Advanced Simple@L5
Параметр BVOP формата : 1
Параметр QPel формата : Нет
Параметр GMC формата : Без точки перехода
Параметр матрицы формата : Выборочная
Идентификатор кодека : XVID
Идентификатор кодека/Подсказка : XviD
Продолжительность : 1 ч. 34 м.
Битрейт : 969 Кбит/сек
Ширина : 576 пикселей
Высота : 448 пикселей
Соотношение сторон : 1,286
Частота кадров : 25,000 кадров/сек
Цветовое пространство : YUV
Субдискретизация насыщенности : 4:2:0
Битовая глубина : 8 бит
Тип развёртки : Прогрессивная
Метод сжатия : С потерями
Бит/(Пиксели*Кадры) : 0.150
Размер потока : 653 Мбайт (88%)
Библиотека кодирования : XviD 65

Аудио
Идентификатор : 1
Формат : MPEG Audio
Версия формата : Version 1
Профиль формата : Layer 3
Режим : Joint stereo
Расширение режима : MS Stereo
Идентификатор кодека : 55
Идентификатор кодека/Подсказка : MP3
Продолжительность : 1 ч. 34 м.
Вид битрейта : Постоянный
Битрейт : 128 Кбит/сек
Каналы : 2 канала
Частота : 48,0 КГц
Метод сжатия : С потерями
Размер потока : 86,3 Мбайт (12%)
Выравнивание : Соединение по промежуткам
Продолжительность промежутка : 40 мс. (1,00 видеокадр)
Время предзагрузки промежутка : 504 мс.
Библиотека кодирования : LAME3.99 (alph





   Похожие торренты   Торрент   Размер 
В этой теме нет новых непрочитанных сообщений. Дело было в Пенькове (1957) DVDRip от Youtracker

567 | 34

1.45 ГБ

В этой теме нет новых непрочитанных сообщений. Дело было в Пенькове (1957) DVDRip AVC

424 | 22

1.45 ГБ

В этой теме нет новых непрочитанных сообщений. Дело было в Пенькове (1957) DVD5

17 | 4

4.21 ГБ

В этой теме нет новых непрочитанных сообщений. Дом, в котором я живу (1957) DVDRip от Youtracker

17 | 5

746.18 МБ

В этой теме нет новых непрочитанных сообщений. К Черному морю (1957) DVDRip от Youtracker

5 | 2

743.72 МБ

В этой теме нет новых непрочитанных сообщений. Рядом с нами (1957) DVDRip от Youtracker

1 | 7

743.08 МБ

В этой теме нет новых непрочитанных сообщений. Рядом с нами (1957) DVDRip-AVC от Youtracker

14 | 2

1.46 ГБ




Вы не можете начинать темы
Вы не можете отвечать на сообщения
Вы не можете редактировать свои сообщения
Вы не можете удалять свои сообщения
Вы не можете добавлять вложения

Перейти:  
Для Мосгорсуда, Роскомнадзора и рекламодателей: mosgorsud-torrent[собачка]yandex.ru
 Вход
ppkBB3cker v.2 © 2008-2014 @ PPK
[ Time : 0.027s | 15 Queries | GZIP : Off ]

Торрент трекер RUTOR.IN, Не можете зайти на rutor.org? Какой новый адрес рутор? Какое зеркало рутор? Не работает rutor.org и зеркала? Тогда наш торрент специально для вас. Rutor.in неофициальное зеркало rutor. В случае если у Вас заблокирован rutor или вдруг Вы не можете на него зайти, то Вы без труда сможете скачать бесплатно и без рекламы последние новинки кино, игр, сериалов и прочего у нас, на Rutor.in. Не нужно использовать прокси, чтобы зайти на рутор, достаточно воспользоваться нашим ресурсом. Все новые фильмы, игры, сериалы, книги и музыка за 2013 и 2014 годы через торрент бесплатно. Скачивайте фильмы в хорошем качестве, игры для пк, xbox, playstation без регистрации. У нас вы найдете новые Зарубежные сериалы и Русские сериалы 2013, 2014, 2015 годов. Оставайтесь с нами, качайте любимые фильмы, игры, сериалы, книги и музыку.