img image001 image001 image001 image001 image001 image001 image001 image001 image001 image001 image001 image001 image001 image001 image001

Planets Sun Sun Sun
Статистика раздачи
Автор: Снежана | Размер: 746.18 МБ | Добавлен: 24 июл 2013
Раздают: 17    Качают: 5
Скачать торрент
Скачать торрент
Описание торрента

СообщениеДобавлено: 24 июл 2013 

#77
Страна: СССР
Производство: Студия Горького
Жанр: драма, военный
Год выпуска: 1957
Продолжительность: 1:34:27

Перевод: не требуется
Оригинальная аудиодорожка: русский
Cубтитры: нет

Режиссер: Лев Кулиджанов, Яков Сегель

В ролях: Владимир Земляникин (Серёжа Давыдов), Николай Елизаров (Давыдов-отец), Евгений Матвеев (Константин Давыдов), Нинель Мышкова (Лида), Лидия Смирнова, Валентина Телегина (Клавдия Кондратьевна Давыдова), Михаил Ульянов (Дмитрий Фёдорович Каширин, геолог), Жанна Болотова (Галя Волынская), Еланская Клавдия (знаменитая актриса Ксения Николаевна), Римма Шорохова (Катя Давыдова) и другие.

Описание:
1935 год. Новый дом на окраине Москвы заселяется новоселами. С этого начинается простой сюжет о судьбах людей разных профессий и увлечений. Впереди страшные годы всеобщей немоты, на смену которым приходит война, а вместе с ней горечь утрат, холод, голод, расставания. Конец войны возвращает радость жизни. По-прежнему светит в окна солнце, летит тополиный пух и, как когда-то, дети опять бегут в школу…





Исходник: DVD5 R5
Тип релиза: DVDRip
Контейнер: AVI

Видео: 576x448 (1,286:1), 25 fps, XviD ~ 967 kbps avg, 0.150 bit/pixel
Аудио: 48 kHz,MP3 2.0, 128 kbps

Раздача от:
Общее
Полное имя : Dom,v.kotorom.ja.zhivu.1957.DVDRip-745_[Youtracker]_by_AVP Studio.avi
Формат : AVI
Формат/Информация : Audio Video Interleave
Размер файла : 746 Мбайт
Продолжительность : 1 ч. 34 м.
Общий поток : 1105 Кбит/сек
Программа кодирования : VirtualDubMod 1.5.10.3 | www.virtualdub-fr.org || (build 2550/release)
Библиотека кодирования : VirtualDubMod build 2550/release

Видео
Идентификатор : 0
Формат : MPEG-4 Visual
Профиль формата : Advanced Simple@L5
Параметр BVOP формата : 1
Параметр QPel формата : Нет
Параметр GMC формата : Без точки перехода
Параметр матрицы формата : Выборочная
Идентификатор кодека : XVID
Идентификатор кодека/Подсказка : XviD
Продолжительность : 1 ч. 34 м.
Битрейт : 967 Кбит/сек
Ширина : 576 пикселей
Высота : 448 пикселей
Соотношение сторон : 1,286
Частота кадров : 25,000 кадров/сек
Цветовое пространство : YUV
Субдискретизация насыщенности : 4:2:0
Битовая глубина : 8 бит
Тип развёртки : Прогрессивная
Метод сжатия : С потерями
Бит/(Пиксели*Кадры) : 0.150
Размер потока : 653 Мбайт (88%)
Библиотека кодирования : XviD 65

Аудио
Идентификатор : 1
Формат : MPEG Audio
Версия формата : Version 1
Профиль формата : Layer 3
Идентификатор кодека : 55
Идентификатор кодека/Подсказка : MP3
Продолжительность : 1 ч. 34 м.
Вид битрейта : Постоянный
Битрейт : 128 Кбит/сек
Каналы : 2 канала
Частота : 48,0 КГц
Метод сжатия : С потерями
Размер потока : 86,5 Мбайт (12%)
Выравнивание : Соединение по промежуткам
Продолжительность промежутка : 40 мс. (1,00 видеокадр)
Время предзагрузки промежутка : 504 мс.
Библиотека кодирования : L3.99r
Настройки программы : -m s -V 4 -q 2 -lowpass 17 -b 128





   Похожие торренты   Торрент   Размер 
В этой теме нет новых непрочитанных сообщений. Дом, в котором я живу (1957) DVDRip-AVC от Youtracker

98 | 5

1.46 ГБ

В этой теме нет новых непрочитанных сообщений. Дом, в котором я живу (1957) DVDRip от Youtracker

21 | 5

1.46 ГБ

В этой теме нет новых непрочитанных сообщений. Дом, в котором я живу (1957) DVDRip от Scarabey

300 | 14

1.45 ГБ

В этой теме нет новых непрочитанных сообщений. К Черному морю (1957) DVDRip-AVC от Youtracker

61 | 21

1.39 ГБ

В этой теме нет новых непрочитанных сообщений. Рядом с нами (1957) DVDRip-AVC от Youtracker

14 | 2

1.46 ГБ

В этой теме нет новых непрочитанных сообщений. Снежная королева (1957) DVDRip от Youtracker

257 | 13

744.82 МБ

В этой теме нет новых непрочитанных сообщений. Рядом с нами (1957) DVDRip от Youtracker

1 | 7

743.08 МБ




Вы не можете начинать темы
Вы не можете отвечать на сообщения
Вы не можете редактировать свои сообщения
Вы не можете удалять свои сообщения
Вы не можете добавлять вложения

Перейти:  
Для Мосгорсуда, Роскомнадзора и рекламодателей: mosgorsud-torrent[собачка]yandex.ru
 Вход
ppkBB3cker v.2 © 2008-2014 @ PPK
[ Time : 0.028s | 14 Queries | GZIP : Off ]
CGP output time : 0.034s | 5 Queries | GZIP : Off

Торрент трекер RUTOR.IN, Не можете зайти на rutor.org? Какой новый адрес рутор? Какое зеркало рутор? Не работает rutor.org и зеркала? Тогда наш торрент специально для вас. Rutor.in неофициальное зеркало rutor. В случае если у Вас заблокирован rutor или вдруг Вы не можете на него зайти, то Вы без труда сможете скачать бесплатно и без рекламы последние новинки кино, игр, сериалов и прочего у нас, на Rutor.in. Не нужно использовать прокси, чтобы зайти на рутор, достаточно воспользоваться нашим ресурсом. Все новые фильмы, игры, сериалы, книги и музыка за 2013 и 2014 годы через торрент бесплатно. Скачивайте фильмы в хорошем качестве, игры для пк, xbox, playstation без регистрации. У нас вы найдете новые Зарубежные сериалы и Русские сериалы 2013, 2014, 2015 годов. Оставайтесь с нами, качайте любимые фильмы, игры, сериалы, книги и музыку.