img image001 image001 image001 image001 image001 image001 image001 image001 image001 image001 image001 image001 image001 image001 image001

Planets Sun Sun Sun
Статистика раздачи
Автор: Снежана | Размер: 1.46 ГБ | Добавлен: 24 июл 2013
Раздают: 3    Качают: 3
Скачать торрент
Скачать торрент
Описание торрента

СообщениеДобавлено: 24 июл 2013 

Клад
(1988)
DVDRip-AVC [Hi10P] от FREEISLAND




Жанр: Комедия, приключения

Режиссер: Виктор Сергеев

В ролях:
Лев Дуров, Сергей Паршин, Дмитрий Харатьян, Михаил Глузский, Лидия Федосеева-Шукшина, Борис Клюев, Людмила Соловьева, Павел Махотин, Ольга Волкова, Михаил Васьков, Надежда Смирнова, Леонид Тимцуник, Вера Ивлева, Григорий Лямпе, Варя Котова, Георгий Мартиросян, Георгий Шахет, Николай Сморчков, Глеб Плаксин, Анатолий Михеев, Михаил Бычков, Елена Бабак, Александр Пряхин

Описание:
Во время полевых работ шоферы находят клад из золотых монет. Они хотят сдать клад государству, но все должностные лица, к которым обращаются герои фильма, не желают брать на себя ответственность за его сохранность...



Страна: СССР
Выпущено: ТО Экран
Продолжительность: 1 ч. 15 м. 38 с.
Перевод: Оригинал
Оригинальная разбивка на главы: сохранена

Внимание!

Рип в High 10 Profile, в настоящее время не поддерживается большинством аппаратных проигрывателей.
Для корректного воспроизведения может потребоваться обновление ПО.
Владельцам несовместимого железа просьба не беспокоить, на трекере есть альтернативные релизы.

Качество: DVDRip-AVC Hi10P (SSIM: 0.9808843)
Исходник: DVD5
Контейнер: MKV
Видео кодек: x264 High10@L4.0
Аудио кодек: AC3
Видео: AVC at 2377 Кбит/сек, 720 x 576 @ 768 x 576 (1.333) at 25.000 fps
Аудио: AC-3 at 384 Кбит/сек, 2 канала, 48,0 КГц
Субтитры: нет


Общее
Уникальный идентификатор : 185472424737340344231058492753566447644 (0x8B88B08DF308824DBB4F60C4647F381C)
Полное имя : Клад (1988) DVDRip-Hi10P by_F.HD.mkv
Формат : Matroska
Версия формата : Version 4 / Version 2
Размер файла : 1,46 Гбайт
Продолжительность : 1 ч. 15 м.
Общий поток : 2762 Кбит/сек
Название фильма : релиз от FREEISLAND.ORG
Дата кодирования : UTC 2013-02-18 15:30:29
Программа кодирования : mkvmerge v6.0.0 ('Coming Up For Air') built on Jan 20 2013 09:52:00
Библиотека кодирования : libebml v1.3.0 + libmatroska v1.4.0

Видео
Идентификатор : 1
Формат : AVC
Формат/Информация : Advanced Video Codec
Профиль формата : High 10@L4.0
Параметр CABAC формата : Да
Параметр ReFrames формата : 16 кадров
Идентификатор кодека : V_MPEG4/ISO/AVC
Продолжительность : 1 ч. 15 м.
Битрейт : 2377 Кбит/сек
Ширина : 720 пикселей
Высота : 576 пикселей
Соотношение сторон : 4:3
Частота кадров : 25,000 кадров/сек
Стандарт вещания : PAL
Цветовое пространство : YUV
Субдискретизация насыщенности : 4:2:0
Битовая глубина : 10 бит
Тип развёртки : Прогрессивная
Бит/(Пиксели*Кадры) : 0.229
Размер потока : 1,23 Гбайт (84%)
Библиотека кодирования : x264 core 129 r2245+704+35 dbbd7a1 tMod [10-bit@all X86_64]
Настройки программы : cabac=1 / ref=16 / deblock=1:-2:-1 / analyse=0x3:0x133 / me=umh / subme=11 / psy=1 / fade_compensate=0.00 / psy_rd=1.00:0.15 / mixed_ref=1 / me_range=64 / chroma_me=1 / trellis=2 / 8x8dct=1 / cqm=0 / deadzone=21,11 / fast_pskip=0 / chroma_qp_offset=-3 / threads=12 / lookahead_threads=2 / sliced_threads=0 / nr=0 / decimate=1 / interlaced=0 / bluray_compat=0 / constrained_intra=0 / fgo=0 / bframes=7 / b_pyramid=2 / b_adapt=2 / b_bias=0 / direct=3 / weightb=1 / open_gop=0 / weightp=2 / keyint=275 / keyint_min=20 / scenecut=40 / intra_refresh=0 / rc_lookahead=0 / rc=2pass / mbtree=0 / bitrate=2377 / ratetol=1.0 / qcomp=1.00 / qpmin=0 / qpmax=48 / qpstep=4 / cplxblur=20.0 / qblur=0.5 / vbv_maxrate=50000 / vbv_bufsize=62500 / nal_hrd=none / ip_ratio=1.40 / pb_ratio=1.30 / aq=4:0.75
Default : Да
Forced : Нет
Основные цвета : BT.601-6 525, BT.1358 525, BT.1700 NTSC, SMPTE 170M
Характеристики трансфера : BT.601-6 525, BT.601-6 625, BT.1358 525, BT.1358 625, BT.1700 NTSC, SMPTE 170M
Коэффициенты матрицы : BT.601-6 525, BT.1358 525, BT.1700 NTSC, SMPTE 170M

Аудио
Идентификатор : 2
Формат : AC-3
Формат/Информация : Audio Coding 3
Расширение режима : CM (complete main)
Идентификатор кодека : A_AC3
Продолжительность : 1 ч. 15 м.
Вид битрейта : Постоянный
Битрейт : 384 Кбит/сек
Каналы : 2 канала
Расположение каналов : Front: L R
Частота : 48,0 КГц
Битовая глубина : 16 бит
Метод сжатия : С потерями
Размер потока : 208 Мбайт (14%)
Язык : Russian
Default : Да
Forced : Нет

Меню
00:00:00.000 : :01
00:08:44.160 : :02
00:17:53.160 : :03
00:27:17.640 : :04
00:36:15.840 : :05
00:42:56.400 : :06
00:51:57.480 : :07
00:59:19.560 : :08
01:09:43.200 : :09













Релиз от:

Если у вас возникают вопросы типа:
-почему у меня есть звук и отсутствует изображение?
-почему у меня рассыпается картинка?
-почему у меня картинка фонит синевой или зеленью?
-зачем и кому всё это нужно?
и тому подобные, читаем FAQ.
ссылка на FAQ запрещена правилами.

По этому, гуглим на тему спойлера (Что такое 10-ти битное видео (High 10 Profile - Hi10P), и как его смотреть?).



   Похожие торренты   Торрент   Размер 
В этой теме нет новых непрочитанных сообщений. Клад (1988) DVDRip

2 | 6

1.09 ГБ

В этой теме нет новых непрочитанных сообщений. Клад (1988) DVDRip от Files-x

2 | 3

1.46 ГБ

В этой теме нет новых непрочитанных сообщений. Мамы (2012) DVDRip-AVC [Hi10P] от FREEISLAND

10 | 3

698.71 МБ

В этой теме нет новых непрочитанных сообщений. Zолушка (2012) DVDRip-AVC [Hi10P] от FREEISLAND

0 | 4

697.94 МБ

В этой теме нет новых непрочитанных сообщений. Самоубийцы (2012) DVDRip-AVC [Hi10P] от FREEISLAND

2 | 2

698.91 МБ

В этой теме нет новых непрочитанных сообщений. Штрафбат [01-11 из 11] (2004) DVDRip-AVC [Hi10P] от FREEISLAND

677 | 85

4.37 ГБ

В этой теме нет новых непрочитанных сообщений. Няньки (2012) DVDRip-AVC [Hi10P] от FREEISLAND

15 | 3

698.59 МБ




Вы не можете начинать темы
Вы не можете отвечать на сообщения
Вы не можете редактировать свои сообщения
Вы не можете удалять свои сообщения
Вы не можете добавлять вложения

Перейти:  
Для Мосгорсуда, Роскомнадзора и рекламодателей: mosgorsud-torrent[собачка]yandex.ru
 Вход
ppkBB3cker v.2 © 2008-2014 @ PPK
[ Time : 0.052s | 14 Queries | GZIP : On ]

Торрент трекер RUTOR.IN, Не можете зайти на rutor.org? Какой новый адрес рутор? Какое зеркало рутор? Не работает rutor.org и зеркала? Тогда наш торрент специально для вас. Rutor.in неофициальное зеркало rutor. В случае если у Вас заблокирован rutor или вдруг Вы не можете на него зайти, то Вы без труда сможете скачать бесплатно и без рекламы последние новинки кино, игр, сериалов и прочего у нас, на Rutor.in. Не нужно использовать прокси, чтобы зайти на рутор, достаточно воспользоваться нашим ресурсом. Все новые фильмы, игры, сериалы, книги и музыка за 2013 и 2014 годы через торрент бесплатно. Скачивайте фильмы в хорошем качестве, игры для пк, xbox, playstation без регистрации. У нас вы найдете новые Зарубежные сериалы и Русские сериалы 2013, 2014, 2015 годов. Оставайтесь с нами, качайте любимые фильмы, игры, сериалы, книги и музыку.