img image001 image001 image001 image001 image001 image001 image001 image001 image001 image001 image001 image001 image001 image001 image001

Planets Sun Sun Sun
Статистика раздачи
Автор: Снежана | Размер: 1.46 ГБ | Добавлен: 24 июл 2013
Раздают: 48    Качают: 7
Скачать торрент
Скачать торрент
Описание торрента

СообщениеДобавлено: 24 июл 2013 

#77
Страна: СССР
Производство: Ленфильм
Жанр: мелодрама, комедия
Год выпуска: 1956
Продолжительность: 01:26:27

Перевод: не требуется
Оригинальная аудиодорожка: русский
Cубтитры: нет

Режиссер: Надежда Кошеверова

В ролях: Людмила Касаткина, Павел Кадочников, Татьяна Панкова, Павел Суханов, Зоя Федорова, Сергей Филиппов, Татьяна Пельтцер, Т. Лобанов, Екатерина Савинова, Владимир Абрамов, Анатолий Абрамов, Кирилл Лавров, Людмила Макарова, Любовь Малиновская...

Описание:
Выпускница медицинского института Людочка Одинцова «выскакивает» замуж за инженера Алексея Рыбальченко для того, чтобы после распределения остаться в Ленинграде. Но неожиданно, Алексей дает согласие на работу в Сибири, и бедной Людочке пришлось последовать за мужем на сибирскую стройку и начать свою трудовую деятельность врачом в крохотном медпункте рабочего поселка…





Исходник: DVD5 R5
Тип релиза: DVDRip
Контейнер: AVI

Видео: 704x528 (4:3), 25 fps, XviD ~ 2017 kbps avg, 0.217 bit/pixel
Аудио: 48 kHz, Dolby AC3 5.0, 384 kbps

Раздача от:
Общее
Полное имя : Medovyj.mesjac.1956.DVDRip_[Youtracker]_by_AVP Studio.avi
Формат : AVI
Формат/Информация : Audio Video Interleave
Размер файла : 1,46 Гбайт
Продолжительность : 1 ч. 26 м.
Общий поток : 2411 Кбит/сек
Программа кодирования : VirtualDubMod 1.5.10.3 | www.virtualdub-fr.org || (build 2550/release)
Библиотека кодирования : VirtualDubMod build 2550/release

Видео
Идентификатор : 0
Формат : MPEG-4 Visual
Профиль формата : Advanced Simple@L5
Параметр BVOP формата : 1
Параметр QPel формата : Нет
Параметр GMC формата : Без точки перехода
Параметр матрицы формата : Выборочная
Идентификатор кодека : XVID
Идентификатор кодека/Подсказка : XviD
Продолжительность : 1 ч. 26 м.
Битрейт : 2017 Кбит/сек
Ширина : 704 пикселя
Высота : 528 пикселей
Соотношение сторон : 4:3
Частота кадров : 25,000 кадров/сек
Цветовое пространство : YUV
Субдискретизация насыщенности : 4:2:0
Битовая глубина : 8 бит
Тип развёртки : Прогрессивная
Метод сжатия : С потерями
Бит/(Пиксели*Кадры) : 0.217
Размер потока : 1,22 Гбайт (84%)
Библиотека кодирования : XviD 65

Аудио
Идентификатор : 1
Формат : AC-3
Формат/Информация : Audio Coding 3
Расширение режима : CM (complete main)
Идентификатор кодека : 2000
Продолжительность : 1 ч. 26 м.
Вид битрейта : Постоянный
Битрейт : 384 Кбит/сек
Каналы : 5 каналов
Расположение каналов : Front: L C R, Side: L R
Частота : 48,0 КГц
Битовая глубина : 16 бит
Метод сжатия : С потерями
Размер потока : 237 Мбайт (16%)
Выравнивание : Разделение по промежуткам
Продолжительность промежутка : 40 мс. (1,00 видеокадр)
Время предзагрузки промежутка : 500 мс





   Похожие торренты   Торрент   Размер 
В этой теме нет новых непрочитанных сообщений. Медовый месяц (1956) DVDRip-AVC от Youtracker

101 | 6

1.46 ГБ

В этой теме нет новых непрочитанных сообщений. Медовый месяц (1956) DVDRip от Youtracker

11 | 5

744.66 МБ

В этой теме нет новых непрочитанных сообщений. Путешествие в медовый месяц / Honeymoon Travels Pvt. Ltd. (2007) DVDRip | Р

76 | 42

1.46 ГБ

В этой теме нет новых непрочитанных сообщений. Однажды в медовый месяц / Once Upon a Honeymoon (1942) DVDRip от egoleshik

2 | 2

1.53 ГБ

В этой теме нет новых непрочитанных сообщений. Медовый месяц зомби / Zombie Honeymoon (2004) DVDRip

3 | 25

1.37 ГБ

В этой теме нет новых непрочитанных сообщений. Медовый месяц Камиллы / Camille (2007) DVDRip by GENADIY

5 | 2

1.67 ГБ

В этой теме нет новых непрочитанных сообщений. Медовый месяц на одного / Отчаянная невеста / Honeymoon for One (2011) DVDRip | P, P

411 | 100

1.48 ГБ




Вы не можете начинать темы
Вы не можете отвечать на сообщения
Вы не можете редактировать свои сообщения
Вы не можете удалять свои сообщения
Вы не можете добавлять вложения

Перейти:  
Для Мосгорсуда, Роскомнадзора и рекламодателей: mosgorsud-torrent[собачка]yandex.ru
 Вход
ppkBB3cker v.2 © 2008-2014 @ PPK
[ Time : 0.096s | 14 Queries | GZIP : Off ]

Торрент трекер RUTOR.IN, Не можете зайти на rutor.org? Какой новый адрес рутор? Какое зеркало рутор? Не работает rutor.org и зеркала? Тогда наш торрент специально для вас. Rutor.in неофициальное зеркало rutor. В случае если у Вас заблокирован rutor или вдруг Вы не можете на него зайти, то Вы без труда сможете скачать бесплатно и без рекламы последние новинки кино, игр, сериалов и прочего у нас, на Rutor.in. Не нужно использовать прокси, чтобы зайти на рутор, достаточно воспользоваться нашим ресурсом. Все новые фильмы, игры, сериалы, книги и музыка за 2013 и 2014 годы через торрент бесплатно. Скачивайте фильмы в хорошем качестве, игры для пк, xbox, playstation без регистрации. У нас вы найдете новые Зарубежные сериалы и Русские сериалы 2013, 2014, 2015 годов. Оставайтесь с нами, качайте любимые фильмы, игры, сериалы, книги и музыку.