img image001 image001 image001 image001 image001 image001 image001 image001 image001 image001 image001 image001 image001 image001 image001

Planets Sun Sun Sun
Статистика раздачи
Автор: Снежана | Размер: 744.66 МБ | Добавлен: 24 июл 2013
Раздают: 11    Качают: 5
Скачать торрент
Скачать торрент
Описание торрента

СообщениеДобавлено: 24 июл 2013 

#77
Страна: СССР
Производство: Ленфильм
Жанр: мелодрама, комедия
Год выпуска: 1956
Продолжительность: 01:26:27

Перевод: не требуется
Оригинальная аудиодорожка: русский
Cубтитры: нет

Режиссер: Надежда Кошеверова

В ролях: Людмила Касаткина, Павел Кадочников, Татьяна Панкова, Павел Суханов, Зоя Федорова, Сергей Филиппов, Татьяна Пельтцер, Т. Лобанов, Екатерина Савинова, Владимир Абрамов, Анатолий Абрамов, Кирилл Лавров, Людмила Макарова, Любовь Малиновская...

Описание:
Выпускница медицинского института Людочка Одинцова «выскакивает» замуж за инженера Алексея Рыбальченко для того, чтобы после распределения остаться в Ленинграде. Но неожиданно, Алексей дает согласие на работу в Сибири, и бедной Людочке пришлось последовать за мужем на сибирскую стройку и начать свою трудовую деятельность врачом в крохотном медпункте рабочего поселка…





Исходник: DVD5 R5
Тип релиза: DVDRip
Контейнер: AVI

Видео: 608x464 (4:3), 25 fps, XviD ~ 1066 kbps avg, 0.151 bit/pixel
Аудио: 48 kHz, MP3 2.0, 128 kbps

Раздача от:
Общее
Полное имя : Medovyj.mesjac.1956.DVDRip-745_[Youtracker]_by_AVP Studio.avi
Формат : AVI
Формат/Информация : Audio Video Interleave
Размер файла : 745 Мбайт
Продолжительность : 1 ч. 26 м.
Общий поток : 1204 Кбит/сек
Программа кодирования : VirtualDubMod 1.5.10.3 | www.virtualdub-fr.org || (build 2550/release)
Библиотека кодирования : VirtualDubMod build 2550/release

Видео
Идентификатор : 0
Формат : MPEG-4 Visual
Профиль формата : Advanced Simple@L5
Параметр BVOP формата : 1
Параметр QPel формата : Нет
Параметр GMC формата : Без точки перехода
Параметр матрицы формата : Выборочная
Идентификатор кодека : XVID
Идентификатор кодека/Подсказка : XviD
Продолжительность : 1 ч. 26 м.
Битрейт : 1066 Кбит/сек
Ширина : 608 пикселей
Высота : 464 пикселя
Соотношение сторон : 4:3
Частота кадров : 25,000 кадров/сек
Цветовое пространство : YUV
Субдискретизация насыщенности : 4:2:0
Битовая глубина : 8 бит
Тип развёртки : Прогрессивная
Метод сжатия : С потерями
Бит/(Пиксели*Кадры) : 0.151
Размер потока : 659 Мбайт (89%)
Библиотека кодирования : XviD 65

Аудио
Идентификатор : 1
Формат : MPEG Audio
Версия формата : Version 1
Профиль формата : Layer 3
Идентификатор кодека : 55
Идентификатор кодека/Подсказка : MP3
Продолжительность : 1 ч. 26 м.
Вид битрейта : Постоянный
Битрейт : 128 Кбит/сек
Каналы : 2 канала
Частота : 48,0 КГц
Метод сжатия : С потерями
Размер потока : 79,2 Мбайт (11%)
Выравнивание : Соединение по промежуткам
Продолжительность промежутка : 40 мс. (1,00 видеокадр)
Время предзагрузки промежутка : 504 мс.
Библиотека кодирования : L3.99r
Настройки программы : -m s -V 4 -q 2 -lowpass 17 -b 128





   Похожие торренты   Торрент   Размер 
В этой теме нет новых непрочитанных сообщений. Медовый месяц (1956) DVDRip от Youtracker

48 | 7

1.46 ГБ

В этой теме нет новых непрочитанных сообщений. Медовый месяц (1956) DVDRip-AVC от Youtracker

101 | 6

1.46 ГБ

В этой теме нет новых непрочитанных сообщений. Путешествие в медовый месяц / Honeymoon Travels Pvt. Ltd. (2007) DVDRip | Р

76 | 42

1.46 ГБ

В этой теме нет новых непрочитанных сообщений. Медовый месяц зомби / Zombie Honeymoon (2004) DVDRip

3 | 25

1.37 ГБ

В этой теме нет новых непрочитанных сообщений. Однажды в медовый месяц / Once Upon a Honeymoon (1942) DVDRip от egoleshik

2 | 2

1.53 ГБ

В этой теме нет новых непрочитанных сообщений. Медовый месяц Камиллы / Camille (2007) DVDRip by GENADIY

5 | 2

1.67 ГБ

В этой теме нет новых непрочитанных сообщений. Тайна мотеля «Медовый месяц» / Fleisch (1979) DVDRip от Киномагия

14 | 9

1.37 ГБ




Вы не можете начинать темы
Вы не можете отвечать на сообщения
Вы не можете редактировать свои сообщения
Вы не можете удалять свои сообщения
Вы не можете добавлять вложения

Перейти:  
Для Мосгорсуда, Роскомнадзора и рекламодателей: mosgorsud-torrent[собачка]yandex.ru
 Вход
ppkBB3cker v.2 © 2008-2014 @ PPK
[ Time : 0.053s | 16 Queries | GZIP : Off ]

Торрент трекер RUTOR.IN, Не можете зайти на rutor.org? Какой новый адрес рутор? Какое зеркало рутор? Не работает rutor.org и зеркала? Тогда наш торрент специально для вас. Rutor.in неофициальное зеркало rutor. В случае если у Вас заблокирован rutor или вдруг Вы не можете на него зайти, то Вы без труда сможете скачать бесплатно и без рекламы последние новинки кино, игр, сериалов и прочего у нас, на Rutor.in. Не нужно использовать прокси, чтобы зайти на рутор, достаточно воспользоваться нашим ресурсом. Все новые фильмы, игры, сериалы, книги и музыка за 2013 и 2014 годы через торрент бесплатно. Скачивайте фильмы в хорошем качестве, игры для пк, xbox, playstation без регистрации. У нас вы найдете новые Зарубежные сериалы и Русские сериалы 2013, 2014, 2015 годов. Оставайтесь с нами, качайте любимые фильмы, игры, сериалы, книги и музыку.