img image001 image001 image001 image001 image001 image001 image001 image001 image001 image001 image001 image001 image001 image001 image001

Planets Sun Sun Sun
Статистика раздачи
Автор: Снежана | Размер: 745.27 МБ | Добавлен: 24 июл 2013
Раздают: 28    Качают: 4
Скачать торрент
Скачать торрент
Описание торрента

СообщениеДобавлено: 24 июл 2013 

#77

Год выпуска: 1998
Страна: Россия
Слоган: «Take the trip for your pride and make it useful!»

Жанр: драма, комедия, детектив, приключения, семейный
Продолжительность: 01:39:05
Перевод: Не требуется

Режиссер: Валерий Чиков
Сценарий: Валерий Чиков, Иван Киасашвили
Продюсер: Наталья Линова, Михаил Евдокимов
Оператор: Тимур Зельма
Композитор: Константин Шевелев

В ролях: Михаил Евдокимов (Иван), Лев Дуров (Яков), Саша Комков (Саша), Ирина Розанова, Николай Трофимов (старик с гробом), Любовь Соколова, Игорь Ясулович (псих), Иван Бортник (свояк), Георгий Гречко (играет самого себя), Леонид Якубович (играет сам себя), Юрий Дуванов, Раиса Рязанова





Описание: Разоренный банкирами фермер едет в Москву к президенту в поисках правды. По дороге он спасает бизнесмена, выручает влюбленного солдата, помогает старикам, попадает «под раздачу» в милиции, а потом пытается въехать в Кремль на «Запорожце». Но правды, естественно, не находит.


Рейтинг

imdb.com: 5.30 (69)


Качество: DVDRip | Sample
Формат: AVI
Исходник: DVD5
Видео: XviD; 672x512 (4:3); 913 Kbps; 25 fps; 0,106 bpp
Аудио: MP3; 128 Kbps; CBR; 2 ch


    Начало фильма снималось в Ярославской области, город Переславль-Залесский.


General
Complete name : E:ФильмыNe.poslat.li.nam.gonca.1998.DVDRip_ot_Youtracker_by_Дядя_Лёша.avi
Format : AVI
Format/Info : Audio Video Interleave
File size : 745 MiB
Duration : 1h 39mn
Overall bit rate : 1 052 Kbps
Writing application : VirtualDubMod 1.5.10.3 | www.virtualdub-fr.org || (build 2550/release)
Writing library : VirtualDubMod build 2550/release

Video
ID : 0
Format : MPEG-4 Visual
Format profile : Advanced Simple@L5
Format settings, BVOP : 2
Format settings, QPel : No
Format settings, GMC : No warppoints
Format settings, Matrix : Custom
Codec ID : XVID
Codec ID/Hint : XviD
Duration : 1h 39mn
Bit rate : 914 Kbps
Width : 672 pixels
Height : 512 pixels
Display aspect ratio : 4:3
Frame rate : 25.000 fps
Color space : YUV
Chroma subsampling : 4:2:0
Bit depth : 8 bits
Scan type : Progressive
Compression mode : Lossy
Bits/(Pixel*Frame) : 0.106
Stream size : 648 MiB (87%)
Writing library : XviD 65

Audio
ID : 1
Format : MPEG Audio
Format version : Version 1
Format profile : Layer 3
Codec ID : 55
Codec ID/Hint : MP3
Duration : 1h 39mn
Bit rate mode : Constant
Bit rate : 128 Kbps
Channel(s) : 2 channels
Sampling rate : 48.0 KHz
Compression mode : Lossy
Stream size : 90.7 MiB (12%)
Alignment : Aligned on interleaves
Interleave, duration : 40 ms (1.00 video frame)
Interleave, preload duration : 504 ms
Writing library : LAME3.99r
Encoding settings : -m s -V 4 -q 2 -lowpass 17 -b 128




   Похожие торренты   Торрент   Размер 
В этой теме нет новых непрочитанных сообщений. Не послать ли нам... гонца? (1998) DVDRip от New-Team

24 | 11

1.46 ГБ

В этой теме нет новых непрочитанных сообщений. Не послать ли нам... гонца? (1998) DVDRip-AVC от New-Team

551 | 57

1.46 ГБ

В этой теме нет новых непрочитанных сообщений. Не послать ли нам... гонца? (1998) DVDRip от Киномагия

28 | 8

1.45 ГБ

В этой теме нет новых непрочитанных сообщений. Не послать ли нам... гонца? (1998) SATRip

5 | 3

697.75 МБ

В этой теме нет новых непрочитанных сообщений. Не послать ли нам... гонца? (1998) DVD5

4 | 3

4.12 ГБ

В этой теме нет новых непрочитанных сообщений. Убить гонца / Kill the Messenger (2014) HDRip | L2

402 | 10

2.05 ГБ

В этой теме нет новых непрочитанных сообщений. Убить гонца / Kill the Messenger (2014) BDRip | D

69 | 7

2.18 ГБ




Вы не можете начинать темы
Вы не можете отвечать на сообщения
Вы не можете редактировать свои сообщения
Вы не можете удалять свои сообщения
Вы не можете добавлять вложения

Перейти:  
Для Мосгорсуда, Роскомнадзора и рекламодателей: mosgorsud-torrent[собачка]yandex.ru
 Вход
ppkBB3cker v.2 © 2008-2014 @ PPK
[ Time : 0.041s | 15 Queries | GZIP : Off ]

Торрент трекер RUTOR.IN, Не можете зайти на rutor.org? Какой новый адрес рутор? Какое зеркало рутор? Не работает rutor.org и зеркала? Тогда наш торрент специально для вас. Rutor.in неофициальное зеркало rutor. В случае если у Вас заблокирован rutor или вдруг Вы не можете на него зайти, то Вы без труда сможете скачать бесплатно и без рекламы последние новинки кино, игр, сериалов и прочего у нас, на Rutor.in. Не нужно использовать прокси, чтобы зайти на рутор, достаточно воспользоваться нашим ресурсом. Все новые фильмы, игры, сериалы, книги и музыка за 2013 и 2014 годы через торрент бесплатно. Скачивайте фильмы в хорошем качестве, игры для пк, xbox, playstation без регистрации. У нас вы найдете новые Зарубежные сериалы и Русские сериалы 2013, 2014, 2015 годов. Оставайтесь с нами, качайте любимые фильмы, игры, сериалы, книги и музыку.
cron