img image001 image001 image001 image001 image001 image001 image001 image001 image001 image001 image001 image001 image001 image001 image001

Planets Sun Sun Sun
Статистика раздачи
Автор: Снежана | Размер: 744 МБ | Добавлен: 24 июл 2013
Раздают: 3    Качают: 7
Скачать торрент
Скачать торрент
Описание торрента

СообщениеДобавлено: 24 июл 2013 

#77

Страна: Россия
Жанр: драма, комедия
Год выпуска: 1993

Продолжительность: 01:17:15


Перевод: Не требуется

Режиссер: Валерий Чиков

В ролях: Сергей Рубеко, Михаил Евдокимов, Валерий Миронов, Владимир Кашпур (Лука Совков), Андрей Николаев (рэкетир), Николай Карнаухов, Виталий Тараничев, Александр Леньков (секретарь райкома), Игорь Ясулович (постоянный клиент медвытрезвителя), Михаил Светин (Зозулин), Александр Толмачев (сержант Дудариков), Игорь Штернберг


Описание: Сельский механизатор Фома, увидев в городе платный туалет, загорелся идеей разбогатеть в своей деревне на таком же бизнесе. Построил роскошное заведение, но деревенским коммунистам и местным рэкетирам эта капиталистическая идея не понравилась...






Качество: DVDRip | Sample
Контейнер: AVI
Исходник: DVD5
Видео: XviD, 640x480 (4:3), 1209 kbps, 25 fps, 0,157 bpp
Аудио: MP3 / 2.0 / 48 kHz / 128 kbps /



General
Complete name : E:Фильмыpro_biznesmena_fomu_1993_DVDRip_ot_Youtracker_by_Дядя_Лёша.avi
Format : AVI
Format/Info : Audio Video Interleave
File size : 744 MiB
Duration : 1h 17mn
Overall bit rate : 1 346 Kbps
Writing application : VirtualDubMod 1.5.10.3 | www.virtualdub-fr.org || (build 2550/release)
Writing library : VirtualDubMod build 2550/release

Video
ID : 0
Format : MPEG-4 Visual
Format profile : Advanced Simple@L5
Format settings, BVOP : 2
Format settings, QPel : No
Format settings, GMC : No warppoints
Format settings, Matrix : Custom
Codec ID : XVID
Codec ID/Hint : XviD
Duration : 1h 17mn
Bit rate : 1 209 Kbps
Width : 640 pixels
Height : 480 pixels
Display aspect ratio : 4:3
Frame rate : 25.000 fps
Color space : YUV
Chroma subsampling : 4:2:0
Bit depth : 8 bits
Scan type : Progressive
Compression mode : Lossy
Bits/(Pixel*Frame) : 0.157
Stream size : 668 MiB (90%)
Writing library : XviD 65

Audio
ID : 1
Format : MPEG Audio
Format version : Version 1
Format profile : Layer 3
Codec ID : 55
Codec ID/Hint : MP3
Duration : 1h 17mn
Bit rate mode : Constant
Bit rate : 128 Kbps
Channel(s) : 2 channels
Sampling rate : 48.0 KHz
Compression mode : Lossy
Stream size : 70.7 MiB (10%)
Alignment : Aligned on interleaves
Interleave, duration : 40 ms (1.00 video frame)
Interleave, preload duration : 504 ms
Writing library : LAME3.99r
Encoding settings : -m s -V 4 -q 2 -lowpass 17 -b 128




   Похожие торренты   Торрент   Размер 
В этой теме нет новых непрочитанных сообщений. Про бизнесмена Фому (1993) DVDRip

15 | 3

1.08 ГБ

В этой теме нет новых непрочитанных сообщений. Про бизнесмена Фому (1993) DVDRip от ExKinoRay

3 | 4

1.05 ГБ

В этой теме нет новых непрочитанных сообщений. Про бизнесмена Фому (1993) DVDRip от New-Team

192 | 15

1.46 ГБ

В этой теме нет новых непрочитанных сообщений. Про бизнесмена Фому (1993) DVD5

58 | 21

3.8 ГБ

В этой теме нет новых непрочитанных сообщений. Бои без правил. Лучшие моменты. 1993-2002 / Ultimate knockouts and submissions. 1993-2002 (2002) DVDRip

7 | 16

1.6 ГБ

В этой теме нет новых непрочитанных сообщений. Kim Wilde - The Singles Collection 1981-1993 (Japan Edition) (1993) MP3

140 | 24

164.09 МБ

В этой теме нет новых непрочитанных сообщений. Славянский базар 1993. Анталогия (1993) DVB от AND03AND

9 | 8

988.28 МБ




Вы не можете начинать темы
Вы не можете отвечать на сообщения
Вы не можете редактировать свои сообщения
Вы не можете удалять свои сообщения
Вы не можете добавлять вложения

Перейти:  
Для Мосгорсуда, Роскомнадзора и рекламодателей: mosgorsud-torrent[собачка]yandex.ru
 Вход
ppkBB3cker v.2 © 2008-2014 @ PPK
[ Time : 0.525s | 16 Queries | GZIP : Off ]

Торрент трекер RUTOR.IN, Не можете зайти на rutor.org? Какой новый адрес рутор? Какое зеркало рутор? Не работает rutor.org и зеркала? Тогда наш торрент специально для вас. Rutor.in неофициальное зеркало rutor. В случае если у Вас заблокирован rutor или вдруг Вы не можете на него зайти, то Вы без труда сможете скачать бесплатно и без рекламы последние новинки кино, игр, сериалов и прочего у нас, на Rutor.in. Не нужно использовать прокси, чтобы зайти на рутор, достаточно воспользоваться нашим ресурсом. Все новые фильмы, игры, сериалы, книги и музыка за 2013 и 2014 годы через торрент бесплатно. Скачивайте фильмы в хорошем качестве, игры для пк, xbox, playstation без регистрации. У нас вы найдете новые Зарубежные сериалы и Русские сериалы 2013, 2014, 2015 годов. Оставайтесь с нами, качайте любимые фильмы, игры, сериалы, книги и музыку.