img image001 image001 image001 image001 image001 image001 image001 image001 image001 image001 image001 image001 image001 image001 image001

Planets Sun Sun Sun
Статистика раздачи
Автор: Снежана | Размер: 740.05 МБ | Добавлен: 24 июл 2013
Раздают: 2977    Качают: 222
Скачать торрент
Скачать торрент
Описание торрента

СообщениеДобавлено: 24 июл 2013 

#77

Страна: СССР
Жанр: мелодрама, комедия, приключения, семейный, музыка
Год выпуска: 1967
Продолжительность: 01:19:53

Перевод: Не требуется
Cубтитры: нет

Режиссер: Леонид Гайдай
В ролях: Александр Демьяненко (Шурик), Наталья Варлей (Нина), Юрий Никулин (Балбес), Георгий Вицин (Трус), Евгений Моргунов (Бывалый), Владимир Этуш (товарищ Саахов), Фрунзик Мкртчян (Джабраил), Руслан Ахметов (Эдик), Нина Гребешкова (доктор), Михаил Глузский (администратор гостиницы), Георгий Милляр (гостеприимный хозяин с рогом), Эммануил Геллер (торговец на рынке)

Описание:
Отправившись в одну из горных республик собирать фольклор, герой фильма Шурик влюбляется в симпатичную девушку - «спортсменку, отличницу, и просто красавицу». Но ее неожиданно похищают, чтобы насильно выдать замуж.
Наивный Шурик не сразу смог сообразить, что творится у него под носом, - однако затем отважно ринулся освобождать «кавказскую пленницу»...

Рейтинг

imdb.com: 8.00 (3 766)
Сэмпл

Качество видео: BDRip [Исходник Blu-ray]
Формат видео: AVI
Видео: XviD; 704x528 (4:3); 1157 Kbps; 23,976 fps; 0,130 bpp
Аудио: MP3; 128 Kbps; CBR; 2 ch ,48 kHz


General
Complete name : E:ФильмыKavkazskaia_plenica_BDRip_ot_Youtracker_by_Дядя_Лёша.avi
Format : AVI
Format/Info : Audio Video Interleave
File size : 740 MiB
Duration : 1h 19mn
Overall bit rate : 1 295 Kbps
Writing application : VirtualDubMod 1.5.10.3 | www.virtualdub-fr.org || (build 2550/release)
Writing library : VirtualDubMod build 2550/release

Video
ID : 0
Format : MPEG-4 Visual
Format profile : Advanced Simple@L5
Format settings, BVOP : 2
Format settings, QPel : No
Format settings, GMC : No warppoints
Format settings, Matrix : Custom
Codec ID : XVID
Codec ID/Hint : XviD
Duration : 1h 19mn
Bit rate : 1 158 Kbps
Width : 704 pixels
Height : 528 pixels
Display aspect ratio : 4:3
Frame rate : 23.976 fps
Color space : YUV
Chroma subsampling : 4:2:0
Bit depth : 8 bits
Scan type : Progressive
Compression mode : Lossy
Bits/(Pixel*Frame) : 0.130
Stream size : 662 MiB (89%)
Writing library : XviD 65

Audio
ID : 1
Format : MPEG Audio
Format version : Version 1
Format profile : Layer 3
Codec ID : 55
Codec ID/Hint : MP3
Duration : 1h 19mn
Bit rate mode : Constant
Bit rate : 128 Kbps
Channel(s) : 2 channels
Sampling rate : 48.0 KHz
Compression mode : Lossy
Stream size : 73.1 MiB (10%)
Alignment : Aligned on interleaves
Interleave, duration : 42 ms (1.00 video frame)
Interleave, preload duration : 504 ms
Writing library : LAME3.99r
Encoding settings : -m s -V 4 -q 2 -lowpass 17 -b 128




   Похожие торренты   Торрент   Размер 
В этой теме нет новых непрочитанных сообщений. Кавказская пленница, или Новые приключения Шурика (1967) BDRip

1277 | 66

1.46 ГБ

В этой теме нет новых непрочитанных сообщений. Кавказская пленница, или новые приключения Шурика (1967) BDRip-AVC

242 | 63

745.49 МБ

В этой теме нет новых непрочитанных сообщений. Кавказская пленница, или новые приключения Шурика (1967) BDRip-AVC

70 | 53

1.46 ГБ

В этой теме нет новых непрочитанных сообщений. Кавказская пленница, или новые приключения Шурика (1967) BDRip Rip by Neofilm

29 | 15

1.46 ГБ

В этой теме нет новых непрочитанных сообщений. Кавказская пленница, или новые приключения Шурика (1967) BDRip от HELLYWOOD

1035 | 34

1.45 ГБ

В этой теме нет новых непрочитанных сообщений. Кавказская пленница, или новые приключения Шурика (1967) BDRip от HQ-ViDEO

5403 | 309

1.46 ГБ

В этой теме нет новых непрочитанных сообщений. Кавказская пленница, или новые приключения Шурика (1967) BDRip от cinemastreet | КПК

63 | 6

228.45 МБ




Вы не можете начинать темы
Вы не можете отвечать на сообщения
Вы не можете редактировать свои сообщения
Вы не можете удалять свои сообщения
Вы не можете добавлять вложения

Перейти:  
Для Мосгорсуда, Роскомнадзора и рекламодателей: mosgorsud-torrent[собачка]yandex.ru
 Вход
ppkBB3cker v.2 © 2008-2014 @ PPK
[ Time : 113.971s | 13 Queries | GZIP : Off ]
CGP output time : 0.020s | 5 Queries | GZIP : Off

Торрент трекер RUTOR.IN, Не можете зайти на rutor.org? Какой новый адрес рутор? Какое зеркало рутор? Не работает rutor.org и зеркала? Тогда наш торрент специально для вас. Rutor.in неофициальное зеркало rutor. В случае если у Вас заблокирован rutor или вдруг Вы не можете на него зайти, то Вы без труда сможете скачать бесплатно и без рекламы последние новинки кино, игр, сериалов и прочего у нас, на Rutor.in. Не нужно использовать прокси, чтобы зайти на рутор, достаточно воспользоваться нашим ресурсом. Все новые фильмы, игры, сериалы, книги и музыка за 2013 и 2014 годы через торрент бесплатно. Скачивайте фильмы в хорошем качестве, игры для пк, xbox, playstation без регистрации. У нас вы найдете новые Зарубежные сериалы и Русские сериалы 2013, 2014, 2015 годов. Оставайтесь с нами, качайте любимые фильмы, игры, сериалы, книги и музыку.