img image001 image001 image001 image001 image001 image001 image001 image001 image001 image001 image001 image001 image001 image001 image001

Planets Sun Sun Sun
Статистика раздачи
Автор: Снежана | Размер: 745.67 МБ | Добавлен: 24 июл 2013
Раздают: 10    Качают: 15
Скачать торрент
Скачать торрент
Описание торрента

СообщениеДобавлено: 24 июл 2013 

#77

Страна: Россия
Жанр: мелодрама
Год выпуска: 2009
Продолжительность: 01:36:57

Перевод: Не требуется
Cубтитры: нет

Режиссер: Валерий Чиков, Сайдо Курбанов, Александр Сайдоха
В ролях: Владислав Галкин (Николай Евлашкин), Елена Лядова (Надежда), Сергей Юшкевич (Федор), Никита Зверев (Слава Елохов), Елена Бирюкова (Шура), Максим Емельянов (Петя), Александр Пятков (Гурий), Никита Сологалов (Ромка), Анна Марлиони (лейтенант милиции), Полина Максимова (Настя), Владимир Горюшин (Тимофей Селиванов), Евгений Сологалов (Санька Большаков)

Описание:
Эта история любви достойна романтичного Парижа с его рекой Сеной. Но разворачивается она в российской глубинке, среди березовых рощ и бескрайних полей свежескошенного сена. Только Коля Евлашкин освобождается из мест не столь отдаленных и - на тебе, снова попадает в милицию: он ведь просто помогает поднести сумку гражданке Лемешевой, а его обвиняют в воровстве. Надя и сама видит, что на вора этот человек совсем не похож. Она забирает свое заявление из милиции и даже одалживает новому знакомому денег. Коля приезжает в деревню, где живет Надя.
Как и положено честному человеку, он готов не только вернуть долг, но и жениться. Но на руку и доброе сердце красавицы Нади претендует целая компания: это и бывший одноклассник, а ныне скромный олигарх, и даже внезапно объявившийся муж. Весь этот многоугольник и составляет жизнь маленькой деревеньки со смешным названием Бухалово. За видимой легкостью отношений стоит трогательная история любви двух людей - Коля и Надя уже давно не ждут чудес. Смогут ли они поверить друг другу?

Рейтинг


Сэмпл

Качество видео: DVDRip
Исходник: DVD5
Формат видео: AVI
Видео: XviD; 688x384 (16:9); 937 Kbps; 25 fps; 0,142 bpp
Аудио: MP3; 128 Kbps; CBR; 2 ch ,48 kHz


General
Complete name : E:ФильмыLubovj.na.sene.2009.DVDRip_ot_Youtracker_by_Дядя_Лёша.avi
Format : AVI
Format/Info : Audio Video Interleave
File size : 746 MiB
Duration : 1h 36mn
Overall bit rate : 1 075 Kbps
Writing application : VirtualDubMod 1.5.10.3 | www.virtualdub-fr.org || (build 2550/release)
Writing library : VirtualDubMod build 2550/release

Video
ID : 0
Format : MPEG-4 Visual
Format profile : Advanced Simple@L5
Format settings, BVOP : 2
Format settings, QPel : No
Format settings, GMC : No warppoints
Format settings, Matrix : Custom
Codec ID : XVID
Codec ID/Hint : XviD
Duration : 1h 36mn
Bit rate : 938 Kbps
Width : 688 pixels
Height : 384 pixels
Display aspect ratio : 16:9
Frame rate : 25.000 fps
Color space : YUV
Chroma subsampling : 4:2:0
Bit depth : 8 bits
Scan type : Progressive
Compression mode : Lossy
Bits/(Pixel*Frame) : 0.142
Stream size : 650 MiB (87%)
Writing library : XviD 65

Audio
ID : 1
Format : MPEG Audio
Format version : Version 1
Format profile : Layer 3
Codec ID : 55
Codec ID/Hint : MP3
Duration : 1h 36mn
Bit rate mode : Constant
Bit rate : 128 Kbps
Channel(s) : 2 channels
Sampling rate : 48.0 KHz
Compression mode : Lossy
Stream size : 88.8 MiB (12%)
Alignment : Aligned on interleaves
Interleave, duration : 40 ms (1.00 video frame)
Interleave, preload duration : 504 ms
Writing library : LAME3.99r
Encoding settings : -m s -V 4 -q 2 -lowpass 17 -b 128






   Похожие торренты   Торрент   Размер 
В этой теме нет новых непрочитанных сообщений. Любовь на сене (2009) DVDRip

74 | 34

1.46 ГБ

В этой теме нет новых непрочитанных сообщений. Собака на сене (1977) DVDRip by гаврила

171 | 7

1.37 ГБ

В этой теме нет новых непрочитанных сообщений. Собака на сене (1977) DVDRip | Реставрация

321 | 12

2.03 ГБ

В этой теме нет новых непрочитанных сообщений. Собака на сене (1977) DVDRip-AVC от FREEISLAND

21 | 10

3.14 ГБ

В этой теме нет новых непрочитанных сообщений. Собака на сене (1977) DVDRip by BigFANGroup | Реставрация

184 | 40

1.99 ГБ

В этой теме нет новых непрочитанных сообщений. Собака на сене (1977) HDTV 1080i

180 | 20

9.51 ГБ

В этой теме нет новых непрочитанных сообщений. Собака на сене (1977) DVD9 | Реставрация

44 | 3

6.35 ГБ




Вы не можете начинать темы
Вы не можете отвечать на сообщения
Вы не можете редактировать свои сообщения
Вы не можете удалять свои сообщения
Вы не можете добавлять вложения

Перейти:  
Для Мосгорсуда, Роскомнадзора и рекламодателей: mosgorsud-torrent[собачка]yandex.ru
 Вход
ppkBB3cker v.2 © 2008-2014 @ PPK
[ Time : 0.022s | 15 Queries | GZIP : Off ]

Торрент трекер RUTOR.IN, Не можете зайти на rutor.org? Какой новый адрес рутор? Какое зеркало рутор? Не работает rutor.org и зеркала? Тогда наш торрент специально для вас. Rutor.in неофициальное зеркало rutor. В случае если у Вас заблокирован rutor или вдруг Вы не можете на него зайти, то Вы без труда сможете скачать бесплатно и без рекламы последние новинки кино, игр, сериалов и прочего у нас, на Rutor.in. Не нужно использовать прокси, чтобы зайти на рутор, достаточно воспользоваться нашим ресурсом. Все новые фильмы, игры, сериалы, книги и музыка за 2013 и 2014 годы через торрент бесплатно. Скачивайте фильмы в хорошем качестве, игры для пк, xbox, playstation без регистрации. У нас вы найдете новые Зарубежные сериалы и Русские сериалы 2013, 2014, 2015 годов. Оставайтесь с нами, качайте любимые фильмы, игры, сериалы, книги и музыку.