img image001 image001 image001 image001 image001 image001 image001 image001 image001 image001 image001 image001 image001 image001 image001

Planets Sun Sun Sun
Статистика раздачи
Автор: Снежана | Размер: 4.36 ГБ | Добавлен: 24 июл 2013
Раздают: 17    Качают: 4
Скачать торрент
Скачать торрент
Описание торрента

СообщениеДобавлено: 24 июл 2013 

Билет на Vegas


Год выпуска: 2012
Страны: Россия, США
Жанры: комедия, приключения
Продолжительность: 01:29:37
Режиссер: Гор Киракосян
Перевод: Оригинал
В ролях:
Михаил Галустян, Иван Стебунов, Ингрид Олеринская, Владимир Яглыч, Наталья Ноздрина, Дэнни Трехо, Олег Тактаров, Ким Уитли, Гильермо Диас, Годфри

Описание:
На молодую парочку, Макса и Лизу, сваливается удача: они становятся победителями лотереи с выигрышем в пять миллионов долларов! Но получить деньги можно только на торжественной церемонии в столице порока, азартных игр и безудержного веселья, Лас Вегасе…
Счастливчики не подозревают, что на большой куш есть и другие претенденты. Оказавшись в Америке, они попадают на крючок очень опасного, но невероятно обаятельного мошенника Гарика, вылитого Элвиса Пресли.
Кто же сорвет джек-пот?



Качество: BDRip 1080p (источник: Blu-ray Disc)
Формат: MKV
Видео кодек: H.264 (AVC)
Аудио кодек: AC3
Видео: 1920x800, 6334 Kbps, 23,976 fps
Звук: 48 kHz, AC3, 6c, 640 kbps
Субтитры: Нет

Скачать Семпл



Общее
Уникальный идентификатор : 238349004217391040573442670949038022288 (0xB35059339B79B29597F32DA7009FDE90)
Формат : Matroska
Версия формата : Version 4 / Version 2
Размер файла : 4,36 Гбайт
Продолжительность : 1 ч. 29 м.
Общий поток : 6970 Кбит/сек
Дата кодирования : UTC 2013-02-24 06:26:35
Программа кодирования : mkvmerge v6.0.0 ('Coming Up For Air') built on Jan 20 2013 09:52:00
Библиотека кодирования : libebml v1.3.0 + libmatroska v1.4.0

Видео
Идентификатор : 1
Формат : AVC
Формат/Информация : Advanced Video Codec
Профиль формата : High@L4.1
Параметр CABAC формата : Да
Параметр ReFrames формата : 5 кадров
Идентификатор кодека : V_MPEG4/ISO/AVC
Продолжительность : 1 ч. 29 м.
Битрейт : 6334 Кбит/сек
Ширина : 1920 пикселей
Высота : 800 пикселей
Соотношение сторон : 2,40:1
Режим частоты кадров : Постоянный
Частота кадров : 23,976 кадра/сек
Цветовое пространство : YUV
Субдискретизация насыщенности : 4:2:0
Битовая глубина : 8 бит
Тип развёртки : Прогрессивная
Бит/(Пиксели*Кадры) : 0.172
Размер потока : 3,88 Гбайт (89%)
Заголовок : Rip by Dimok
Библиотека кодирования : x264 core 129 r2245 bc13772
Настройки программы : cabac=1 / ref=5 / deblock=1:0:0 / analyse=0x3:0x133 / me=umh / subme=11 / psy=1 / psy_rd=1.00:0.40 / mixed_ref=1 / me_range=32 / chroma_me=1 / trellis=2 / 8x8dct=1 / cqm=0 / deadzone=21,11 / fast_pskip=0 / chroma_qp_offset=-2 / threads=12 / lookahead_threads=2 / sliced_threads=0 / slices=1 / nr=0 / decimate=0 / interlaced=0 / bluray_compat=0 / constrained_intra=0 / bframes=6 / b_pyramid=2 / b_adapt=2 / b_bias=0 / direct=3 / weightb=1 / open_gop=0 / weightp=2 / keyint=240 / keyint_min=23 / scenecut=40 / intra_refresh=0 / rc_lookahead=70 / rc=2pass / mbtree=1 / bitrate=6334 / ratetol=1.0 / qcomp=0.60 / qpmin=1 / qpmax=69 / qpstep=4 / cplxblur=20.0 / qblur=0.5 / ip_ratio=1.40 / aq=2:1.00
Язык : English
Default : Да
Forced : Нет

Аудио
Идентификатор : 2
Формат : AC-3
Формат/Информация : Audio Coding 3
Расширение режима : CM (complete main)
Параметр Endianness формата : Big
Идентификатор кодека : A_AC3
Продолжительность : 1 ч. 29 м.
Вид битрейта : Постоянный
Битрейт : 640 Кбит/сек
Каналы : 6 каналов
Расположение каналов : Front: L C R, Side: L R, LFE
Частота : 48,0 КГц
Битовая глубина : 16 бит
Метод сжатия : С потерями
Размер потока : 410 Мбайт (9%)
Заголовок : Оригинал
Язык : Russian
Default : Да
Forced : Нет

Меню
00:00:00.000 : en:01
00:03:46.583 : en:02
00:07:30.667 : en:03
00:12:49.208 : en:04
00:17:32.708 : en:05
00:22:53.958 : en:06
00:26:01.667 : en:07
00:34:38.542 : en:08
00:39:03.875 : en:09
00:42:38.042 : en:10
00:46:35.417 : en:11
00:49:58.583 : en:12
00:56:49.375 : en:13
01:01:58.833 : en:14
01:08:51.500 : en:15
01:11:53.125 : en:16
01:17:36.833 : en:17
01:19:01.167 : en:18
x264 [info]: frame I:1879 Avg QP:18.85 size:190637
x264 [info]: frame P:29149 Avg QP:21.96 size: 62148
x264 [info]: frame B:97912 Avg QP:23.77 size: 21289



   Похожие торренты   Торрент   Размер 
В этой теме нет новых непрочитанных сообщений. Билет на Vegas (2012) BDRip 1080p

45 | 3

7.97 ГБ

В этой теме нет новых непрочитанных сообщений. Билет на Vegas (2012) BDRip | Лицензия

392 | 14

1.46 ГБ

В этой теме нет новых непрочитанных сообщений. Билет на Vegas (2012) BDRip 720p

11 | 4

3.44 ГБ

В этой теме нет новых непрочитанных сообщений. Билет на Vegas (2012) BDRip-AVC от potroks | Лицензия

19 | 2

1.46 ГБ

В этой теме нет новых непрочитанных сообщений. Билет на Vegas (2012) BDRip от HQCLUB | Лицензия

174 | 6

1.45 ГБ

В этой теме нет новых непрочитанных сообщений. Билет на Vegas (2012) BDRip от Youtracker | лицензия

36 | 8

748.08 МБ

В этой теме нет новых непрочитанных сообщений. Билет на Vegas (2012) Blu-Ray

2 | 6

24.71 ГБ




Вы не можете начинать темы
Вы не можете отвечать на сообщения
Вы не можете редактировать свои сообщения
Вы не можете удалять свои сообщения
Вы не можете добавлять вложения

Перейти:  
Для Мосгорсуда, Роскомнадзора и рекламодателей: mosgorsud-torrent[собачка]yandex.ru
 Вход
ppkBB3cker v.2 © 2008-2014 @ PPK
[ Time : 0.047s | 16 Queries | GZIP : Off ]

cron