img image001 image001 image001 image001 image001 image001 image001 image001 image001 image001 image001 image001 image001 image001 image001

Planets Sun Sun Sun
Статистика раздачи
Автор: Снежана | Размер: 1.46 ГБ | Добавлен: 24 июл 2013
Раздают: 196    Качают: 17
Скачать торрент
Скачать торрент
Описание торрента

СообщениеДобавлено: 24 июл 2013 

#77
Страна: СССР
Производство: Грузия-фильм
Жанр: фантастика, приключения
Год выпуска: 1955
Продолжительность: 02:22:57 (01:18:51+01:04:06)

Перевод: не требуется
Оригинальная аудиодорожка: русский
Cубтитры: нет

Режиссер: Константин Пипинашвили

В ролях: Николай Чистяков, Сергей Столяров, Игорь Владимиров, Сергей Голованов, Пётр Соболевский, Сергей Комаров, Антонина Максимова, Павел Луспекаев, Михаил Глузский...

Описание:
В послевоенные годы в Атлантическом океане при загадочных обстоятельствах погибает советский теплоход «Арктика». Одновременно в Тихом океане взрывается французский теплоход «Виктуар». Советскому экипажу хорошо оснащенной подводной лодки «Пионер» предстоит выяснить причину гибели двух теплоходов…





Исходник: 2хDVD5 R5
Тип релиза: DVDRip
Контейнер: AVI

Видео: 688x512 (4:3), 25 fps, XviD ~ 1305 kbps avg, 0.148 bit/pixel
Аудио: 48 kHz, MP3 2.0, 128 kbps

Раздача от:
Общее
Полное имя : Tajna.dvuh.okeanov.1955.DVDRip.avi
Формат : AVI
Формат/Информация : Audio Video Interleave
Размер файла : 822 Мбайт
Продолжительность : 1 ч. 19 м.
Общий поток : 1442 Кбит/сек
Программа кодирования : VirtualDubMod 1.5.10.3 | www.virtualdub-fr.org || (build 2550/release)
Библиотека кодирования : VirtualDubMod build 2550/release

Видео
Идентификатор : 0
Формат : MPEG-4 Visual
Профиль формата : Advanced Simple@L5
Параметр BVOP формата : 1
Параметр QPel формата : Нет
Параметр GMC формата : Без точки перехода
Параметр матрицы формата : Выборочная
Идентификатор кодека : XVID
Идентификатор кодека/Подсказка : XviD
Продолжительность : 1 ч. 19 м.
Битрейт : 1305 Кбит/сек
Ширина : 688 пикселей
Высота : 512 пикселей
Соотношение сторон : 4:3
Частота кадров : 25,000 кадров/сек
Цветовое пространство : YUV
Субдискретизация насыщенности : 4:2:0
Битовая глубина : 8 бит
Тип развёртки : Прогрессивная
Метод сжатия : С потерями
Бит/(Пиксели*Кадры) : 0.148
Размер потока : 744 Мбайт (90%)
Библиотека кодирования : XviD 65

Аудио
Идентификатор : 1
Формат : MPEG Audio
Версия формата : Version 1
Профиль формата : Layer 3
Идентификатор кодека : 55
Идентификатор кодека/Подсказка : MP3
Продолжительность : 1 ч. 19 м.
Вид битрейта : Постоянный
Битрейт : 128 Кбит/сек
Каналы : 2 канала
Частота : 48,0 КГц
Метод сжатия : С потерями
Размер потока : 73,0 Мбайт (9%)
Выравнивание : Соединение по промежуткам
Продолжительность промежутка : 40 мс. (1,00 видеокадр)
Время предзагрузки промежутка : 504 мс.
Библиотека кодирования : L3.99r
Настройки программы : -m s -V 4 -q 2 -lowpass 17 -b 128





   Похожие торренты   Торрент   Размер 
В этой теме нет новых непрочитанных сообщений. Тайна двух океанов (1955) DVDRip от Youtracker

8 | 3

2.19 ГБ

В этой теме нет новых непрочитанных сообщений. Тайна двух океанов (1955) DVDRip-AVC от Youtracker

20 | 13

2.19 ГБ

В этой теме нет новых непрочитанных сообщений. Тайна двух океанов (1956) DVDRip

94 | 34

2.06 ГБ

В этой теме нет новых непрочитанных сообщений. Григорий Адамов - Тайна двух океанов (2007) MP3

4 | 4

1.07 ГБ

В этой теме нет новых непрочитанных сообщений. У двух голубок / Aux deux colombes (1955) DVDRip | L1

61 | 9

1.43 ГБ

В этой теме нет новых непрочитанных сообщений. Тайна трех океанов (2014) HDTVRip от -=HD-NET=-

222 | 24

701.95 МБ

В этой теме нет новых непрочитанных сообщений. Тайна трех океанов (2014) HDTVRip от GeneralFilm

2178 | 241

629.42 МБ




Вы не можете начинать темы
Вы не можете отвечать на сообщения
Вы не можете редактировать свои сообщения
Вы не можете удалять свои сообщения
Вы не можете добавлять вложения

Перейти:  
Для Мосгорсуда, Роскомнадзора и рекламодателей: mosgorsud-torrent[собачка]yandex.ru
 Вход
ppkBB3cker v.2 © 2008-2014 @ PPK
[ Time : 0.041s | 15 Queries | GZIP : Off ]

Торрент трекер RUTOR.IN, Не можете зайти на rutor.org? Какой новый адрес рутор? Какое зеркало рутор? Не работает rutor.org и зеркала? Тогда наш торрент специально для вас. Rutor.in неофициальное зеркало rutor. В случае если у Вас заблокирован rutor или вдруг Вы не можете на него зайти, то Вы без труда сможете скачать бесплатно и без рекламы последние новинки кино, игр, сериалов и прочего у нас, на Rutor.in. Не нужно использовать прокси, чтобы зайти на рутор, достаточно воспользоваться нашим ресурсом. Все новые фильмы, игры, сериалы, книги и музыка за 2013 и 2014 годы через торрент бесплатно. Скачивайте фильмы в хорошем качестве, игры для пк, xbox, playstation без регистрации. У нас вы найдете новые Зарубежные сериалы и Русские сериалы 2013, 2014, 2015 годов. Оставайтесь с нами, качайте любимые фильмы, игры, сериалы, книги и музыку.
cron