img image001 image001 image001 image001 image001 image001 image001 image001 image001 image001 image001 image001 image001 image001 image001

Planets Sun Sun Sun
Статистика раздачи
Автор: Снежана | Размер: 744.15 МБ | Добавлен: 24 июл 2013, 08:09
Раздают: 11    Качают: 3
Скачать торрент
Скачать торрент
Описание торрента

СообщениеДобавлено: 24 июл 2013, 08:09 

#77
Страна: СССР
Производство: Ленфильм
Жанр: комедия
Год выпуска: 1957
Продолжительность: 01:08:50

Перевод: не требуется
Оригинальная аудиодорожка: русский
Cубтитры: нет

Режиссер: Сергей Сиделев

В ролях: ПЛеонид Харитонов, Всеволод Ларионов, Георгий Черноволенко, Яков Родос, Джемма Осмоловская, Вера Карпова, Евгений Леонов, Людмила Макарова, Сергей Филиппов, Ольга Порудолинская, Георгий Семенов, Александр Орлов (II), Константин Одашевский, Юрий Боголюбов...

Описание:
Возвращающийся навеселе главбух Смирнов забирается в будку регулировщика и нарушает движение транспорта на одной из улиц Ленинграда. Но постовой Вася Шанешкин доставляет в отделение милиции не нарушителя, а вполне порядочного гражданина — кассира Стройтреста Воднева, который, ко всему прочему, оказывается отцом его любимой девушки Кати.
Вася признает свою вину, но не решается извиниться — и оставляет обиженного наедине с плохими мыслями о советской милиции. Однако молодому сержанту вскоре представится возможность защитить кассира от нападения — и герой выполнит свой долг…





Исходник: DVD5 R5
Тип релиза: DVDRip
Контейнер: AVI

Видео: 688x528 (4:3), 25 fps, XviD ~ 1374 kbps avg, 0.151 bit/pixel
Аудио: 48 kHz, MP3 2.0, 128 kbps

Раздача от:
Общее
Полное имя : Ulica.polna.neozhidannostej.1957.DVDRip_[Youtracker]_by_AVP Studio.avi
Формат : AVI
Формат/Информация : Audio Video Interleave
Размер файла : 744 Мбайт
Продолжительность : 1 ч. 8 м.
Общий поток : 1512 Кбит/сек
Программа кодирования : VirtualDubMod 1.5.10.3 | www.virtualdub-fr.org || (build 2550/release)
Библиотека кодирования : VirtualDubMod build 2550/release

Видео
Идентификатор : 0
Формат : MPEG-4 Visual
Профиль формата : Advanced Simple@L5
Параметр BVOP формата : 1
Параметр QPel формата : Нет
Параметр GMC формата : Без точки перехода
Параметр матрицы формата : Выборочная
Идентификатор кодека : XVID
Идентификатор кодека/Подсказка : XviD
Продолжительность : 1 ч. 8 м.
Битрейт : 1374 Кбит/сек
Ширина : 688 пикселей
Высота : 528 пикселей
Соотношение сторон : 4:3
Частота кадров : 25,000 кадров/сек
Цветовое пространство : YUV
Субдискретизация насыщенности : 4:2:0
Битовая глубина : 8 бит
Тип развёртки : Прогрессивная
Метод сжатия : С потерями
Бит/(Пиксели*Кадры) : 0.151
Размер потока : 676 Мбайт (91%)
Библиотека кодирования : XviD 65

Аудио
Идентификатор : 1
Формат : MPEG Audio
Версия формата : Version 1
Профиль формата : Layer 3
Идентификатор кодека : 55
Идентификатор кодека/Подсказка : MP3
Продолжительность : 1 ч. 8 м.
Вид битрейта : Постоянный
Битрейт : 128 Кбит/сек
Каналы : 2 канала
Частота : 48,0 КГц
Метод сжатия : С потерями
Размер потока : 63,0 Мбайт (8%)
Выравнивание : Соединение по промежуткам
Продолжительность промежутка : 40 мс. (1,00 видеокадр)
Время предзагрузки промежутка : 504 мс.
Библиотека кодирования : L3.99r
Настройки программы : -m s -V 4 -q 2 -lowpass 17 -b 128





   Похожие торренты   Торрент   Размер 
В этой теме нет новых непрочитанных сообщений. Улица полна неожиданностей (1957) DVDRip-AVC от Youtracker

81 | 7

744.11 МБ

В этой теме нет новых непрочитанных сообщений. Улица полна неожиданностей (1957) DVDRip от NovaLan

115 | 25

960.78 МБ

В этой теме нет новых непрочитанных сообщений. Луговая улица / Улица Прэри / Rue des Prairies (1959) DVDRip от Lebanon

2 | 1

742 МБ

В этой теме нет новых непрочитанных сообщений. К Черному морю (1957) DVDRip-AVC от Youtracker

61 | 21

1.39 ГБ

В этой теме нет новых непрочитанных сообщений. К Черному морю (1957) DVDRip от Youtracker

5 | 2

743.72 МБ

В этой теме нет новых непрочитанных сообщений. Дом, в котором я живу (1957) DVDRip-AVC от Youtracker

98 | 5

1.46 ГБ

В этой теме нет новых непрочитанных сообщений. Дом, в котором я живу (1957) DVDRip от Youtracker

17 | 5

746.18 МБ




Вы не можете начинать темы
Вы не можете отвечать на сообщения
Вы не можете редактировать свои сообщения
Вы не можете удалять свои сообщения
Вы не можете добавлять вложения

Перейти:  
Для Мосгорсуда, Роскомнадзора и рекламодателей: mosgorsud-torrent[собачка]yandex.ru
Настройки
ppkBB3cker v.2 © 2008-2014 @ PPK
[ Time : 0.023s | 15 Queries | GZIP : Off ]
CGP [Extreme] output time : 0.00020s | 0 Queries | GZIP : Off

Торрент трекер RUTOR.IN, Не можете зайти на rutor.org? Какой новый адрес рутор? Какое зеркало рутор? Не работает rutor.org и зеркала? Тогда наш торрент специально для вас. Rutor.in неофициальное зеркало rutor. В случае если у Вас заблокирован rutor или вдруг Вы не можете на него зайти, то Вы без труда сможете скачать бесплатно и без рекламы последние новинки кино, игр, сериалов и прочего у нас, на Rutor.in. Не нужно использовать прокси, чтобы зайти на рутор, достаточно воспользоваться нашим ресурсом. Все новые фильмы, игры, сериалы, книги и музыка за 2013 и 2014 годы через торрент бесплатно. Скачивайте фильмы в хорошем качестве, игры для пк, xbox, playstation без регистрации. У нас вы найдете новые Зарубежные сериалы и Русские сериалы 2013, 2014, 2015 годов. Оставайтесь с нами, качайте любимые фильмы, игры, сериалы, книги и музыку.