img image001 image001 image001 image001 image001 image001 image001 image001 image001 image001 image001 image001 image001 image001 image001

Planets Sun Sun Sun
Статистика раздачи
Автор: Снежана | Размер: 748.08 МБ | Добавлен: 24 июл 2013
Раздают: 36    Качают: 8
Скачать торрент
Скачать торрент
Описание торрента

СообщениеДобавлено: 24 июл 2013 

«Кто же сорвет джек-пот?»



#77

Год выпуска: 2012
Страна: Россия
Жанр: комедия, приключения
Продолжительность: 01:29:37

Оригинальный язык: русский
Субтитры: нет

Режиссеры: Гор Киракосян

В ролях: Михаил Галустян, Иван Стебунов, Ингрид Олеринская, Владимир Яглыч, Наталья Ноздрина, Дэнни Трехо, Олег Тактаров, Ким Уитли, Гильермо Диас, Годфри...

О фильме: На молодую парочку, Макса и Лизу, сваливается удача: они становятся победителями лотереи с выигрышем в пять миллионов долларов! Но получить деньги можно только на торжественной церемонии в столице порока, азартных игр и безудержного веселья, Лас Вегасе…
Счастливчики не подозревают, что на большой куш есть и другие претенденты. Оказавшись в Америке, они попадают на крючок очень опасного, но невероятно обаятельного мошенника Гарика, вылитого Элвиса Пресли.
Кто же сорвет джек-пот?





Качество видео: BDRip [BDRemux 1080p]
Формат видео: AVI

Видео: 720x304 (2.35:1), XViD 1029 Кбит/сек 24,000 fps / Бит/(Пиксели*Кадры): 0.196
Аудио: МР3 Russian 128 kbps 2.0 / 48 kHz

Раздача от:
General
Complete name : Bilet.na.Vegas.2012.O.BDRip.745MB_[Youtracker]_by_avproh.avi
Format : AVI
Format/Info : Audio Video Interleave
File size : 748 MiB
Duration : 1h 29mn
Overall bit rate : 1 167 Kbps
Writing application : VirtualDubModRus 1.5.10.2 (build 2542/release)
Writing library : VirtualDubMod build 2542/release

Video
ID : 0
Format : MPEG-4 Visual
Format profile : Advanced Simple@L5
Format settings, BVOP : 1
Format settings, QPel : No
Format settings, GMC : No warppoints
Format settings, Matrix : Custom
Codec ID : XVID
Codec ID/Hint : XviD
Duration : 1h 29mn
Bit rate : 1 029 Kbps
Width : 720 pixels
Height : 304 pixels
Display aspect ratio : 2.35:1
Frame rate : 24.000 fps
Color space : YUV
Chroma subsampling : 4:2:0
Bit depth : 8 bits
Scan type : Progressive
Compression mode : Lossy
Bits/(Pixel*Frame) : 0.196
Stream size : 660 MiB (88%)
Writing library : XviD 64

Audio
ID : 1
Format : MPEG Audio
Format version : Version 1
Format profile : Layer 3
Mode : Joint stereo
Mode extension : MS Stereo
Codec ID : 55
Codec ID/Hint : MP3
Duration : 1h 29mn
Bit rate mode : Constant
Bit rate : 128 Kbps
Channel(s) : 2 channels
Sampling rate : 48.0 KHz
Compression mode : Lossy
Stream size : 82.1 MiB (11%)
Alignment : Aligned on interleaves
Interleave, duration : 42 ms (1.00 video frame)
Interleave, preload duration : 504 ms






   Похожие торренты   Торрент   Размер 
В этой теме нет новых непрочитанных сообщений. Билет на Vegas (2012) DVD9 R5 от Youtracker

3 | 2

6.43 ГБ

В этой теме нет новых непрочитанных сообщений. Билет на Vegas (2012) BDRip | Лицензия

392 | 14

1.46 ГБ

В этой теме нет новых непрочитанных сообщений. Билет на Vegas (2012) DVD5 от Youtracker | сжатый

2 | 2

4.37 ГБ

В этой теме нет новых непрочитанных сообщений. Билет на Vegas (2012) BDRip-AVC от potroks | Лицензия

19 | 2

1.46 ГБ

В этой теме нет новых непрочитанных сообщений. Билет на Vegas (2012) BDRip от HQCLUB | Лицензия

174 | 6

1.45 ГБ

В этой теме нет новых непрочитанных сообщений. Билет на Vegas (2012) НDRip от Scarabey | Лицензия

74 | 6

1.49 ГБ

В этой теме нет новых непрочитанных сообщений. Билет на Vegas (2012) НDRip от Scarabey | Лицензия

16 | 4

742.25 МБ




Вы не можете начинать темы
Вы не можете отвечать на сообщения
Вы не можете редактировать свои сообщения
Вы не можете удалять свои сообщения
Вы не можете добавлять вложения

Перейти:  
Для Мосгорсуда, Роскомнадзора и рекламодателей: mosgorsud-torrent[собачка]yandex.ru
 Вход
ppkBB3cker v.2 © 2008-2014 @ PPK
[ Time : 0.524s | 18 Queries | GZIP : Off ]

cron