img image001 image001 image001 image001 image001 image001 image001 image001 image001 image001 image001 image001 image001 image001 image001

Planets Sun Sun Sun
Статистика раздачи
Автор: Снежана | Размер: 743.69 МБ | Добавлен: 24 июл 2013
Раздают: 47    Качают: 18
Скачать торрент
Скачать торрент
Описание торрента

СообщениеДобавлено: 24 июл 2013 

#77
Страна: СССР
Производство: Студия Горького
Жанр: комедия
Год выпуска: 1958
Продолжительность: 01:30:44

Перевод: не требуется
Оригинальная аудиодорожка: русский
Cубтитры: нет

Режиссер: Иван Лукинский

В ролях: Леонид Харитонов, Татьяна Пельтцер, Сергей Блинников, Анна Коломийцева, Дая Смирнова, Михаил Пуговкин, Вера М.Орлова, С.Зайкова, Евгений Шутов, Станислав Минин, К.Синицын, Ю.Ликумс, Т.Жайлибеков, Борис Толмазов, Владимир Лепко...

Описание: Продолжение фильма «Солдат Иван Бровкин». После демобилизации Иван Бровкин гостил дома недолго. Вместе со своими друзьями он решил поехать на целину. А Любаша, не согласившись ехать в далекую землю, снова осталась ждать своего Ивана, который вместе со всеми преодолевал трудности, а вскоре стал бригадиром трактористов, ударником труда.
Мать Ивана переехала к сыну, которому друзья-целинники построили новый дом. Сюда же приехал и Захар Силыч к своей Полине. За свой труд Иван Бровкин был награжден Орденом Трудового Красного Знамени. Теперь он приехал свататься к своей Любаше. Ее родители уже не возражали. После свадьбы молодые люди уехали на целину, чтобы продолжить освоение целинных земель…





Исходник: DVD9 R5
Тип релиза: DVDRip
Контейнер: AVI

Видео: 640x480 (4:3), 25 fps, XviD ~ 1008 kbps avg, 0.131 bit/pixel
Аудио: 48 kHz, MP3 2.0, 128 kbps

Раздача от:
Общее
Полное имя : Ivan.Brovkin.na.celine.1958.DVDRip-745_[Youtracker]_by_AVP Studio.avi
Формат : AVI
Формат/Информация : Audio Video Interleave
Размер файла : 744 Мбайт
Продолжительность : 1 ч. 30 м.
Общий поток : 1146 Кбит/сек
Программа кодирования : VirtualDubMod 1.5.10.3 | www.virtualdub-fr.org || (build 2550/release)
Библиотека кодирования : VirtualDubMod build 2550/release

Видео
Идентификатор : 0
Формат : MPEG-4 Visual
Профиль формата : Advanced Simple@L5
Параметр BVOP формата : 1
Параметр QPel формата : Нет
Параметр GMC формата : Без точки перехода
Параметр матрицы формата : Выборочная
Идентификатор кодека : XVID
Идентификатор кодека/Подсказка : XviD
Продолжительность : 1 ч. 30 м.
Битрейт : 1008 Кбит/сек
Ширина : 640 пикселей
Высота : 480 пикселей
Соотношение сторон : 4:3
Частота кадров : 25,000 кадров/сек
Цветовое пространство : YUV
Субдискретизация насыщенности : 4:2:0
Битовая глубина : 8 бит
Тип развёртки : Прогрессивная
Метод сжатия : С потерями
Бит/(Пиксели*Кадры) : 0.131
Размер потока : 654 Мбайт (88%)
Библиотека кодирования : XviD 65

Аудио
Идентификатор : 1
Формат : MPEG Audio
Версия формата : Version 1
Профиль формата : Layer 3
Идентификатор кодека : 55
Идентификатор кодека/Подсказка : MP3
Продолжительность : 1 ч. 30 м.
Вид битрейта : Постоянный
Битрейт : 128 Кбит/сек
Каналы : 2 канала
Частота : 48,0 КГц
Метод сжатия : С потерями
Размер потока : 83,1 Мбайт (11%)
Выравнивание : Соединение по промежуткам
Продолжительность промежутка : 40 мс. (1,00 видеокадр)
Время предзагрузки промежутка : 504 мс.
Библиотека кодирования : L3.99r
Настройки программы : -m s -V 4 -q 2 -lowpass 17 -b 128





   Похожие торренты   Торрент   Размер 
В этой теме нет новых непрочитанных сообщений. Иван Бровкин на целине (1958) DVDRip от Youtracker

15 | 12

1.45 ГБ

В этой теме нет новых непрочитанных сообщений. Иван Бровкин на целине (1958) DVDRip-AVC от Youtracker

567 | 39

1.46 ГБ

В этой теме нет новых непрочитанных сообщений. Иван Бровкин на целине (1958) DVDRip

181 | 35

1.37 ГБ

В этой теме нет новых непрочитанных сообщений. Солдат Иван Бровкин (1956) DVDRip-AVC от Youtracker

646 | 37

1.46 ГБ

В этой теме нет новых непрочитанных сообщений. Солдат Иван Бровкин (1956) DVDRip от Youtracker

152 | 16

744.55 МБ

В этой теме нет новых непрочитанных сообщений. Солдат Иван Бровкин (1956) DVD5 от Youtracker

4 | 6

4.35 ГБ

В этой теме нет новых непрочитанных сообщений. Солдат Иван Бровкин (1955) DVDRip

394 | 29

1.37 ГБ




Вы не можете начинать темы
Вы не можете отвечать на сообщения
Вы не можете редактировать свои сообщения
Вы не можете удалять свои сообщения
Вы не можете добавлять вложения

Перейти:  
Для Мосгорсуда, Роскомнадзора и рекламодателей: mosgorsud-torrent[собачка]yandex.ru
 Вход
ppkBB3cker v.2 © 2008-2014 @ PPK
[ Time : 0.020s | 14 Queries | GZIP : On ]

Торрент трекер RUTOR.IN, Не можете зайти на rutor.org? Какой новый адрес рутор? Какое зеркало рутор? Не работает rutor.org и зеркала? Тогда наш торрент специально для вас. Rutor.in неофициальное зеркало rutor. В случае если у Вас заблокирован rutor или вдруг Вы не можете на него зайти, то Вы без труда сможете скачать бесплатно и без рекламы последние новинки кино, игр, сериалов и прочего у нас, на Rutor.in. Не нужно использовать прокси, чтобы зайти на рутор, достаточно воспользоваться нашим ресурсом. Все новые фильмы, игры, сериалы, книги и музыка за 2013 и 2014 годы через торрент бесплатно. Скачивайте фильмы в хорошем качестве, игры для пк, xbox, playstation без регистрации. У нас вы найдете новые Зарубежные сериалы и Русские сериалы 2013, 2014, 2015 годов. Оставайтесь с нами, качайте любимые фильмы, игры, сериалы, книги и музыку.