img image001 image001 image001 image001 image001 image001 image001 image001 image001 image001 image001 image001 image001 image001 image001

Planets Sun Sun Sun
Статистика раздачи
Автор: Снежана | Размер: 1.46 ГБ | Добавлен: 24 июл 2013
Раздают: 223    Качают: 7
Скачать торрент
Скачать торрент
Описание торрента

СообщениеДобавлено: 24 июл 2013 

Джентльмены, удачи! / Dzhentlmeny, udachi! (2012) BDRip
Релиз от HQ-ViDEO

«Шли на дело - попали на ёлку»
Информация о фильме:
Оригинальное название: Джентльмены, удачи!
Год выхода: 2012
Жанр: Комедия, Криминал
Режиссёр: Александр Баранов, Дмитрий Киселёв
В ролях: Сергей Безруков, Марина Петренко, Гоша Куценко, Дато Бахтадзе /Dato Bakhtadze/, Кирилл Жандаров, Антон Богданов, Валентин Смирнитский, Иван Ивашкин, Ольга Медынич, Толепберген Байсакалов /Tolepbergen Baisakalov/
Сюжет фильма:
Молодой аниматор детского центра Леша Трешкин — инфантильный и жизнерадостный «хипстер» — оказывается двойником опаснейшего вора и убийцы Смайлика (так его прозвали за привычку улыбаться перед тем, как убить). Смайлик похищает из музея Санкт-Петербурга национальный символ Казахстана — Доспех Золотого Воина. Молодая красивая лейтенант полиции Ирина Славина ловит Трешкина, и «современными» полицейскими методами заставляет его помочь следствию. Выбора нет, иначе Трешкин сядет как настоящий преступник.
Так Трешкин оказывается в Египте, где сидят двое подельников Смайлика — молодой воришка-оптимист Муха и матёрый мрачный Шатун. Начинается безумная череда приключений, — побег под прикрытием песчаной бури, гонки на грузовиках, переодевание в паранджи. Пытаясь выкрутиться из создавшейся ситуации, Трешкин неожиданно понимает, что из безответственного слабака превращается в человека, от которого зависит свобода и жизнь других. Но когда реальный Смайлик выходит на сцену, Трешкину придется решиться на настоящий подвиг, чтобы в этот новый год спасти и себя, и Славину, и своих новых друзей. А главное — найти любовь.


Страна: Россия
Продолжительность: 01:39:55
Перевод: Не требуется
Субтитры: Отсутствуют
Информация о файле:
Качество: BDRip
Файл: AVI
Кодек: XviD, build 65 codec
Видео: 720 x 304, 2.37:1; 24.000 fps; ~ 1698 kbps; 0.323 bit/pixel
Аудио : 48 kHz, AC3 Dolby Digital, 3/2 (L,C,R,l,r) + LFE ch, ~384.00 kbps avg
Размер: 1494 Mb (1/3 )


General
Format : AVI
Format/Info : Audio Video Interleave
File size : 1.46 GiB
Duration : 1h 39mn
Overall bit rate : 2 092 Kbps
Movie name : Dzhentlmeny.Udachi.2012.RUS.BDRip.XviD.AC3.-HQ-ViDEO
Director : AngelOfTrue
Writing application : VirtualDubMod 1.5.10.3 | www.virtualdub-fr.org || (build 2550/release)
Original source form/Name : Movie
Copyright : HQ-ViDEO
Comment : 28.02.2013
Video
ID : 0
Format : MPEG-4 Visual
Format profile : Advanced Simple@L5
Format settings, BVOP : 1
Format settings, QPel : No
Format settings, GMC : No warppoints
Format settings, Matrix : Custom
Codec ID : XVID
Codec ID/Hint : XviD
Duration : 1h 39mn
Bit rate : 1 698 Kbps
Width : 720 pixels
Height : 304 pixels
Display aspect ratio : 2.35:1
Frame rate : 24.000 fps
Color space : YUV
Chroma subsampling : 4:2:0
Bit depth : 8 bits
Scan type : Progressive
Compression mode : Lossy
Bits/(Pixel*Frame) : 0.323
Stream size : 1.19 GiB (81%)
Writing library : XviD 65
Audio
ID : 1
Format : AC-3
Format/Info : Audio Coding 3
Mode extension : CM (complete main)
Codec ID : 2000
Duration : 1h 39mn
Bit rate mode : Constant
Bit rate : 384 Kbps
Channel(s) : 6 channels
Channel positions : Front: L C R, Side: L R, LFE
Sampling rate : 48.0 KHz
Bit depth : 16 bits
Compression mode : Lossy
Stream size : 274 MiB (18%)
Alignment : Split accross interleaves
Interleave, duration : 42 ms (1.00 video frame)
Interleave, preload duration : 500 ms
Фильм снимался в Санкт-Петербурге и Израиле.

Релиз:
Автор рипа: AngelOfTrue
Источник:
ПРИЯТНОГО ПРОСМОТРА!



   Похожие торренты   Торрент   Размер 
В этой теме нет новых непрочитанных сообщений. Джентльмены, удачи! (2012) BDRip-AVC от HQ-ViDEO

196 | 11

2.05 ГБ

В этой теме нет новых непрочитанных сообщений. Джентльмены удачи (1971) BDRip-AVC от HQ-ViDEO

206 | 16

2.05 ГБ

В этой теме нет новых непрочитанных сообщений. Джентльмены удачи (1971) BDRip от HQ-ViDEO

67 | 15

1.45 ГБ

В этой теме нет новых непрочитанных сообщений. Джентльмены удачи (1971) BDRip 720p от HQ-ViDEO

38 | 6

4.37 ГБ

В этой теме нет новых непрочитанных сообщений. Джентльмены, удачи! (2012) BDRip-AVC | iPad

21 | 4

1.98 ГБ

В этой теме нет новых непрочитанных сообщений. Джентльмены, Удачи! (2012) BDRip | Лицензия

17 | 3

1.46 ГБ

В этой теме нет новых непрочитанных сообщений. Джентльмены, удачи! (2012) BDRip 720p

6 | 5

3.4 ГБ




Вы не можете начинать темы
Вы не можете отвечать на сообщения
Вы не можете редактировать свои сообщения
Вы не можете удалять свои сообщения
Вы не можете добавлять вложения

Перейти:  
Для Мосгорсуда, Роскомнадзора и рекламодателей: mosgorsud-torrent[собачка]yandex.ru
 Вход
ppkBB3cker v.2 © 2008-2014 @ PPK
[ Time : 0.037s | 16 Queries | GZIP : Off ]

Торрент трекер RUTOR.IN, Не можете зайти на rutor.org? Какой новый адрес рутор? Какое зеркало рутор? Не работает rutor.org и зеркала? Тогда наш торрент специально для вас. Rutor.in неофициальное зеркало rutor. В случае если у Вас заблокирован rutor или вдруг Вы не можете на него зайти, то Вы без труда сможете скачать бесплатно и без рекламы последние новинки кино, игр, сериалов и прочего у нас, на Rutor.in. Не нужно использовать прокси, чтобы зайти на рутор, достаточно воспользоваться нашим ресурсом. Все новые фильмы, игры, сериалы, книги и музыка за 2013 и 2014 годы через торрент бесплатно. Скачивайте фильмы в хорошем качестве, игры для пк, xbox, playstation без регистрации. У нас вы найдете новые Зарубежные сериалы и Русские сериалы 2013, 2014, 2015 годов. Оставайтесь с нами, качайте любимые фильмы, игры, сериалы, книги и музыку.
cron