img image001 image001 image001 image001 image001 image001 image001 image001 image001 image001 image001 image001 image001 image001 image001

Planets Sun Sun Sun
Статистика раздачи
Автор: Снежана | Размер: 742.78 МБ | Добавлен: 24 июл 2013
Раздают: 2    Качают: 5
Скачать торрент
Скачать торрент
Описание торрента

СообщениеДобавлено: 24 июл 2013 

#77
Страна: СССР
Производство: Мосфильм
Жанр: криминал, детектив
Год выпуска: 1956
Продолжительность: 01:16:23

Перевод: не требуется
Оригинальная аудиодорожка: русский
Cубтитры: нет

Режиссер: Анатолий Рыбаков

В ролях: Борис Битюков, Марк Бернес, Татьяна Пилецкая, Константин Нассонов, Ада Войцик, Максим Штраух, Людмила Шагалова, Евгений Весник, Валентина Токарская, Евгений Тетерин, Н.Хощанов, Софья Фадеева, Владимир Ратомский, Анастасия Зуева, Виктор Колпаков...

Описание:
На одной из московских улиц произошло дорожно-транспортное происшествие: сбита пожилая женщина, а затем и постовой милиционер, пытавшийся задержать машину. Женщина без сознания, документов у неё не обнаружено, а постовой милиционер скончался.
Но есть случайный свидетель — молодая хозяйка дорого автомобиля. И она может помочь — если поймет, как важны её показания: ведь в ходе следствия неожиданно выясняется, что в этой, казалось бы, обычной аварии замешаны агенты иностранной разведки…





Исходник: DVD5 R5
Тип релиза: DVDRip
Контейнер: AVI

Видео: 640x496 (4:3), 25 fps, XviD ~ 1216 kbps avg, 0.153 bit/pixel
Аудио: 48 kHz, MP3 2.0, 128 kbps

Раздача от:
Общее
Полное имя : Delo.№.306.1956.DVDRip-745_[Youtracker]_by_AVP Studio.avi
Формат : AVI
Формат/Информация : Audio Video Interleave
Размер файла : 743 Мбайт
Продолжительность : 1 ч. 16 м.
Общий поток : 1354 Кбит/сек
Программа кодирования : VirtualDubMod 1.5.10.3 | www.virtualdub-fr.org || (build 2550/release)
Библиотека кодирования : VirtualDubMod build 2550/release

Видео
Идентификатор : 0
Формат : MPEG-4 Visual
Профиль формата : Advanced Simple@L5
Параметр BVOP формата : 1
Параметр QPel формата : Нет
Параметр GMC формата : Без точки перехода
Параметр матрицы формата : Выборочная
Идентификатор кодека : XVID
Идентификатор кодека/Подсказка : XviD
Продолжительность : 1 ч. 16 м.
Битрейт : 1216 Кбит/сек
Ширина : 640 пикселей
Высота : 496 пикселей
Соотношение сторон : 1,290
Частота кадров : 25,000 кадров/сек
Цветовое пространство : YUV
Субдискретизация насыщенности : 4:2:0
Битовая глубина : 8 бит
Тип развёртки : Прогрессивная
Метод сжатия : С потерями
Бит/(Пиксели*Кадры) : 0.153
Размер потока : 667 Мбайт (90%)
Библиотека кодирования : XviD 65

Аудио
Идентификатор : 1
Формат : MPEG Audio
Версия формата : Version 1
Профиль формата : Layer 3
Идентификатор кодека : 55
Идентификатор кодека/Подсказка : MP3
Продолжительность : 1 ч. 16 м.
Вид битрейта : Постоянный
Битрейт : 128 Кбит/сек
Каналы : 2 канала
Частота : 48,0 КГц
Метод сжатия : С потерями
Размер потока : 70,2 Мбайт (9%)
Выравнивание : Соединение по промежуткам
Продолжительность промежутка : 40 мс. (1,00 видеокадр)
Время предзагрузки промежутка : 504 мс.
Библиотека кодирования : L3.99r
Настройки программы : -m s -V 4 -q 2 -lowpass 17 -b 128





   Похожие торренты   Торрент   Размер 
В этой теме нет новых непрочитанных сообщений. Дело № 306 (1956) DVDRip-AVC от Youtracker

71 | 16

1.46 ГБ

В этой теме нет новых непрочитанных сообщений. Дело № 306 (1956) DVDRip от Youtracker

30 | 6

1.42 ГБ

В этой теме нет новых непрочитанных сообщений. Дело № 306 (1956) DVDRip от Alekxandr48

7 | 5

699.75 МБ

В этой теме нет новых непрочитанных сообщений. Медовый месяц (1956) DVDRip-AVC от Youtracker

101 | 6

1.46 ГБ

В этой теме нет новых непрочитанных сообщений. Старые знакомые (1956) DVDRip-AVC от Youtracker

17 | 3

309.49 МБ

В этой теме нет новых непрочитанных сообщений. Илья Муромец (1956) DVDRip от Youtracker

18 | 14

744.42 МБ

В этой теме нет новых непрочитанных сообщений. Медовый месяц (1956) DVDRip от Youtracker

48 | 7

1.46 ГБ




Вы не можете начинать темы
Вы не можете отвечать на сообщения
Вы не можете редактировать свои сообщения
Вы не можете удалять свои сообщения
Вы не можете добавлять вложения

Перейти:  
Для Мосгорсуда, Роскомнадзора и рекламодателей: mosgorsud-torrent[собачка]yandex.ru
 Вход
ppkBB3cker v.2 © 2008-2014 @ PPK
[ Time : 0.041s | 15 Queries | GZIP : Off ]

Торрент трекер RUTOR.IN, Не можете зайти на rutor.org? Какой новый адрес рутор? Какое зеркало рутор? Не работает rutor.org и зеркала? Тогда наш торрент специально для вас. Rutor.in неофициальное зеркало rutor. В случае если у Вас заблокирован rutor или вдруг Вы не можете на него зайти, то Вы без труда сможете скачать бесплатно и без рекламы последние новинки кино, игр, сериалов и прочего у нас, на Rutor.in. Не нужно использовать прокси, чтобы зайти на рутор, достаточно воспользоваться нашим ресурсом. Все новые фильмы, игры, сериалы, книги и музыка за 2013 и 2014 годы через торрент бесплатно. Скачивайте фильмы в хорошем качестве, игры для пк, xbox, playstation без регистрации. У нас вы найдете новые Зарубежные сериалы и Русские сериалы 2013, 2014, 2015 годов. Оставайтесь с нами, качайте любимые фильмы, игры, сериалы, книги и музыку.